Tags
Language
Tags

Savoy Brown - Looking In (1970) Reissue 1990

Posted By: Designol
Savoy Brown - Looking In (1970) Reissue 1990

Savoy Brown - Looking In (1970) Reissue 1990
EAC | FLAC | Tracks (Cue&Log) ~ 213 Mb | Mp3 (CBR320) ~ 90 Mb | Scans ~ 125 Mb
Blues-Rock, Boogie Rock, British Blues | Label: Deram | # 844 017-2 | 00:39:38

Savoy Brown's blues-rock sound takes on a much more defined feel on 1970's Looking In and is one of this band's best efforts. Kim Simmonds is utterly bewildering on guitar, while Lonesome Dave Peverett does a fine job taking over lead singing duties from Chris Youlden who left halfway through the year. But it's the captivating arrangements and alluring ease of the music that makes this a superb listen. The pleading strain transformed through Simmonds' guitar on "Money Can't Save Your Soul" is mud-thick with raw blues, and the comfort of "Sunday Night" is extremely smooth and laid back. "Take It Easy" sounds like it could have been a B.B. King tune as it's doused with relaxed guitar fingering. The entire album is saturated with a simple, British blues sound but the pace and the marbled strands of bubbly instrumental perkiness fill it with life. Even the Yardbirds-flavored "Leaving Again" is appealing with its naïve hooks, capped off with a heart-stopping guitar solo. This album along with Street Corner Talking best exemplify Savoy Brown's tranquilizing style.

Review by Mike DeGagne, Allmusic.com

Savoy Brown - Looking In (1970) Reissue 1990



Tracklist:

01. Gypsy (1:02)
02. Poor Girl (4:09)
03. Money Can't Save Your Soul (5:32)
04. Sunday Night (5:25)
05. Looking In (5:20)
06. Take It Easy (5:44)
07. Sitting An' Thinking (2:54)
08. Leavin' Again (8:30)
09. Romanoff (1:02)


Exact Audio Copy V1.0 beta 3 from 29. August 2011

EAC extraction logfile from 5. December 2018, 19:52

Savoy Brown / Looking In (DERAM 844 017-2)

Used drive : HL-DT-STDVD-RAM GSA-H22L Adapter: 4 ID: 4

Read mode : Secure
Utilize accurate stream : Yes
Defeat audio cache : Yes
Make use of C2 pointers : No

Read offset correction : 102
Overread into Lead-In and Lead-Out : No
Fill up missing offset samples with silence : Yes
Delete leading and trailing silent blocks : No
Null samples used in CRC calculations : Yes
Used interface : Native Win32 interface for Win NT & 2000
Gap handling : Appended to previous track

Used output format : User Defined Encoder
Selected bitrate : 768 kBit/s
Quality : High
Add ID3 tag : No
Command line compressor : C:\Program Files\FLAC Frontend\tools\flac.exe
Additional command line options : -V -8 -T "Genre=%genre%" -T "Artist=%artist%" -T "Title=%title%" -T "Album=%albumtitle%" -T "Date=%year%" -T "Tracknumber=%tracknr%" -T "Comment=%comment%" %source%


TOC of the extracted CD

Track | Start | Length | Start sector | End sector
––––––––––––––––––––––––––––-
1 | 0:00.32 | 1:01.48 | 32 | 4654
2 | 1:02.05 | 4:09.35 | 4655 | 23364
3 | 5:11.40 | 5:32.07 | 23365 | 48271
4 | 10:43.47 | 5:24.63 | 48272 | 72634
5 | 16:08.35 | 5:19.52 | 72635 | 96611
6 | 21:28.12 | 5:44.05 | 96612 | 122416
7 | 27:12.17 | 2:54.03 | 122417 | 135469
8 | 30:06.20 | 8:30.17 | 135470 | 173736
9 | 38:36.37 | 1:02.13 | 173737 | 178399


Track 1

Filename D:\Savoy Browm - 1970 - Looking In (DERAM 844 017-2)\01 - Gypsy.wav

Pre-gap length 0:00:02.42

Peak level 62.9 %
Extraction speed 1.0 X
Track quality 100.0 %
Test CRC C3CC0C5F
Copy CRC C3CC0C5F
Accurately ripped (confidence 8) [BB1F1CDF] (AR v2)
Copy OK

Track 2

Filename D:\Savoy Browm - 1970 - Looking In (DERAM 844 017-2)\02 - Poor Girl.wav

Pre-gap length 0:00:02.42

Peak level 98.6 %
Extraction speed 1.6 X
Track quality 100.0 %
Test CRC 1A86B5F5
Copy CRC 1A86B5F5
Accurately ripped (confidence 8) [1EFDB0E8] (AR v2)
Copy OK

Track 3

Filename D:\Savoy Browm - 1970 - Looking In (DERAM 844 017-2)\03 - Money Can't Save Your Soul.wav

Pre-gap length 0:00:02.22

Peak level 95.4 %
Extraction speed 1.9 X
Track quality 100.0 %
Test CRC DF840339
Copy CRC DF840339
Accurately ripped (confidence 8) [E08E3DE1] (AR v2)
Copy OK

Track 4

Filename D:\Savoy Browm - 1970 - Looking In (DERAM 844 017-2)\04 - Sunday Night.wav

Pre-gap length 0:00:01.01

Peak level 87.7 %
Extraction speed 2.1 X
Track quality 100.0 %
Test CRC EE4AE89A
Copy CRC EE4AE89A
Accurately ripped (confidence 8) [B484EA43] (AR v2)
Copy OK

Track 5

Filename D:\Savoy Browm - 1970 - Looking In (DERAM 844 017-2)\05 - Looking In.wav

Pre-gap length 0:00:02.32

Peak level 68.4 %
Extraction speed 2.1 X
Track quality 99.9 %
Test CRC 61123A9C
Copy CRC 61123A9C
Accurately ripped (confidence 8) [606ADEA2] (AR v2)
Copy OK

Track 6

Filename D:\Savoy Browm - 1970 - Looking In (DERAM 844 017-2)\06 - Take It Easy.wav

Pre-gap length 0:00:02.32

Peak level 79.1 %
Extraction speed 2.5 X
Track quality 100.0 %
Test CRC F0964A96
Copy CRC F0964A96
Accurately ripped (confidence 7) [E6FADE41] (AR v2)
Copy OK

Track 7

Filename D:\Savoy Browm - 1970 - Looking In (DERAM 844 017-2)\07 - Sitting An' Thinking.wav

Pre-gap length 0:00:02.78

Peak level 73.4 %
Extraction speed 2.4 X
Track quality 100.0 %
Test CRC C2A2636C
Copy CRC C2A2636C
Accurately ripped (confidence 7) [7DFE7DE8] (AR v2)
Copy OK

Track 8

Filename D:\Savoy Browm - 1970 - Looking In (DERAM 844 017-2)\08 - Leavin' Again.wav

Pre-gap length 0:00:03.09

Peak level 88.2 %
Extraction speed 2.9 X
Track quality 100.0 %
Test CRC 13314728
Copy CRC 13314728
Accurately ripped (confidence 8) [8A224D40] (AR v2)
Copy OK

Track 9

Filename D:\Savoy Browm - 1970 - Looking In (DERAM 844 017-2)\09 - Romanoff.wav

Pre-gap length 0:00:02.81

Peak level 43.8 %
Extraction speed 1.9 X
Track quality 100.0 %
Test CRC 3634946C
Copy CRC 3634946C
Accurately ripped (confidence 8) [930B63DF] (AR v2)
Copy OK


All tracks accurately ripped

No errors occurred

End of status report

==== Log checksum E041D669C2698C103D2558B8749E61B43C584DD5445CFF09B3DA3DAA5B678B9E ====

foobar2000 1.2 / Dynamic Range Meter 1.1.1
log date: 2018-12-12 20:37:13

––––––––––––––––––––––––––––––––––––––––
Analyzed: Savoy Brown / Looking In (DERAM 844 017-2)
––––––––––––––––––––––––––––––––––––––––

DR Peak RMS Duration Track
––––––––––––––––––––––––––––––––––––––––
DR13 -4.02 dB -22.10 dB 1:02 01-Gypsy
DR11 -0.12 dB -12.72 dB 4:09 02-Poor Girl
DR12 -0.40 dB -16.18 dB 5:32 03-Money Can't Save Your Soul
DR11 -1.14 dB -15.26 dB 5:25 04-Sunday Night
DR12 -3.29 dB -16.67 dB 5:20 05-Looking In
DR16 -2.04 dB -21.56 dB 5:44 06-Take It Easy
DR12 -2.68 dB -17.21 dB 2:54 07-Sitting An' Thinking
DR13 -1.08 dB -16.30 dB 8:30 08-Leavin' Again
DR12 -7.17 dB -24.43 dB 1:02 09-Romanoff
––––––––––––––––––––––––––––––––––––––––

Number of tracks: 9
Official DR value: DR12

Samplerate: 44100 Hz
Channels: 2
Bits per sample: 16
Bitrate: 503 kbps
Codec: FLAC
================================================================================

Savoy Brown - Looking In (1970) Reissue 1990

Savoy Brown - Looking In (1970) Reissue 1990