Tags
Language
Tags

Savoy Brown - Raw Sienna (1970) {1990, Reissue}

Posted By: popsakov
Savoy Brown - Raw Sienna (1970) {1990, Reissue}

Savoy Brown - Raw Sienna (1970) {1990, Reissue}
EAC Rip | FLAC (Tracks) + Cue + m3u8 + Log ~ 232 Mb | MP3 CBR320 ~ 103 Mb
Scans Included | 00:37:16 | RAR 5% Recovery
Classic Rock, Blues Rock | Deram #844 016-2

This high-water mark by the band finds them softening their rougher edges and stretching out into jazz territory, yet still retaining a blues foundation. There's not a bad cut here, with enough variety (bottleneck slide, acoustic guitar, horns, and strings) to warrant frequent late-night listenings. "A Hard Way to Go," "Needle and Spoon," and "Stay While the Night Is Young" are especially strong, as are two instrumental numbers. Unfortunately, leader Kim Simmonds lost his greatest asset when vocalist Chris Youlden quit for an ill-fated solo career after this recording. Youlden had one of the most distinctive voices in British blues, and Savoy would never fully recover from his exit.

~ Peter Kurtz, All Music

***************

Savoy Brown - Raw Sienna (1970) {1990, Reissue}

Savoy Brown - Raw Sienna (1970) {1990, Reissue}

Track List:

01. A Hard Way to Go [2:22]
02. That Same Feelin' [3:38]
03. Master Hare [4:52]
04. Needle and Spoon [3:19]
05. A Little More Wine [4:53]
06. I'm Crying [4:18]
07. Stay While the Night Is Young [3:08]
08. Is That So [7:41]
09. When I Was a Young Boy [3:05]

Exact Audio Copy V1.0 beta 3 from 29. August 2011

EAC extraction logfile from 11. August 2014, 13:28

Savoy Brown / Raw Sienna

Used drive : HL-DT-STDVDRAM GH24NSB0 Adapter: 1 ID: 0

Read mode : Secure
Utilize accurate stream : Yes
Defeat audio cache : Yes
Make use of C2 pointers : No

Read offset correction : 6
Overread into Lead-In and Lead-Out : No
Fill up missing offset samples with silence : Yes
Delete leading and trailing silent blocks : No
Null samples used in CRC calculations : Yes
Used interface : Native Win32 interface for Win NT & 2000
Gap handling : Appended to previous track

Used output format : User Defined Encoder
Selected bitrate : 1024 kBit/s
Quality : High
Add ID3 tag : No
Command line compressor : C:\Program Files (x86)\Exact Audio Copy\Flac\flac.exe
Additional command line options : -V -8 -T "Genre=%genre%" -T "Artist=%artist%" -T "Title=%title%" -T "Album=%albumtitle%" -T "Date=%year%" -T "Tracknumber=%tracknr%" -T "Comment=%comment%" %source%


TOC of the extracted CD

Track | Start | Length | Start sector | End sector
––––––––––––––––––––––––––––-
1 | 0:00.32 | 2:24.50 | 32 | 10881
2 | 2:25.07 | 3:40.05 | 10882 | 27386
3 | 6:05.12 | 4:53.33 | 27387 | 49394
4 | 10:58.45 | 3:20.72 | 49395 | 64466
5 | 14:19.42 | 4:56.15 | 64467 | 86681
6 | 19:15.57 | 4:20.20 | 86682 | 106201
7 | 23:36.02 | 3:10.53 | 106202 | 120504
8 | 26:46.55 | 7:44.15 | 120505 | 155319
9 | 34:30.70 | 3:05.02 | 155320 | 169196


Track 1

Filename D:\Music\Musicgate's rips\Savoy Brown - Raw Sienna - 1970 (1990 Deram)\01. A Hard Way to Go.wav

Pre-gap length 0:00:02.32

Peak level 100.0 %
Extraction speed 0.9 X
Track quality 100.0 %
Test CRC 0090688C
Copy CRC 0090688C
Cannot be verified as accurate (confidence 11) [6EA63CE7], AccurateRip returned [9033B956] (AR v2)
Copy OK

Track 2

Filename D:\Music\Musicgate's rips\Savoy Brown - Raw Sienna - 1970 (1990 Deram)\02. That Same Feelin'.wav

Pre-gap length 0:00:02.30

Peak level 83.9 %
Extraction speed 0.9 X
Track quality 99.9 %
Test CRC B226F0B5
Copy CRC B226F0B5
Cannot be verified as accurate (confidence 11) [40806D00], AccurateRip returned [9F822767] (AR v2)
Copy OK

Track 3

Filename D:\Music\Musicgate's rips\Savoy Brown - Raw Sienna - 1970 (1990 Deram)\03. Master Hare.wav

Pre-gap length 0:00:02.35

Peak level 95.4 %
Extraction speed 1.1 X
Track quality 99.9 %
Test CRC 093EE39A
Copy CRC 093EE39A
Cannot be verified as accurate (confidence 11) [2C62A00B], AccurateRip returned [EBB6C5A1] (AR v2)
Copy OK

Track 4

Filename D:\Music\Musicgate's rips\Savoy Brown - Raw Sienna - 1970 (1990 Deram)\04. Needle and Spoon.wav

Pre-gap length 0:00:01.25

Peak level 78.0 %
Extraction speed 1.2 X
Track quality 100.0 %
Test CRC 6752F3ED
Copy CRC 6752F3ED
Cannot be verified as accurate (confidence 11) [7B017EDF], AccurateRip returned [889EAAE6] (AR v2)
Copy OK

Track 5

Filename D:\Music\Musicgate's rips\Savoy Brown - Raw Sienna - 1970 (1990 Deram)\05. A Little More Wine.wav

Pre-gap length 0:00:02.07

Peak level 72.7 %
Extraction speed 1.4 X
Track quality 100.0 %
Test CRC 0A9CD67C
Copy CRC 0A9CD67C
Cannot be verified as accurate (confidence 11) [6D82A09F], AccurateRip returned [7382AFEB] (AR v2)
Copy OK

Track 6

Filename D:\Music\Musicgate's rips\Savoy Brown - Raw Sienna - 1970 (1990 Deram)\06. I'm Crying.wav

Pre-gap length 0:00:03.37

Peak level 89.8 %
Extraction speed 1.3 X
Track quality 99.9 %
Test CRC 93ED14C9
Copy CRC 93ED14C9
Cannot be verified as accurate (confidence 11) [159099F7], AccurateRip returned [723EB190] (AR v2)
Copy OK

Track 7

Filename D:\Music\Musicgate's rips\Savoy Brown - Raw Sienna - 1970 (1990 Deram)\07. Stay While the Night Is Young.wav

Pre-gap length 0:00:02.40

Peak level 73.0 %
Extraction speed 1.5 X
Track quality 100.0 %
Test CRC 93E12B60
Copy CRC 93E12B60
Cannot be verified as accurate (confidence 11) [5D7505D0], AccurateRip returned [06AC7E89] (AR v2)
Copy OK

Track 8

Filename D:\Music\Musicgate's rips\Savoy Brown - Raw Sienna - 1970 (1990 Deram)\08. Is That So.wav

Pre-gap length 0:00:02.35

Peak level 79.5 %
Extraction speed 1.8 X
Track quality 100.0 %
Test CRC 94EEB3C2
Copy CRC 94EEB3C2
Cannot be verified as accurate (confidence 10) [02E119BC], AccurateRip returned [85168D27] (AR v2)
Copy OK

Track 9

Filename D:\Music\Musicgate's rips\Savoy Brown - Raw Sienna - 1970 (1990 Deram)\09. When I Was a Young Boy.wav

Pre-gap length 0:00:02.60

Peak level 81.3 %
Extraction speed 1.7 X
Track quality 100.0 %
Test CRC A5714DA4
Copy CRC A5714DA4
Cannot be verified as accurate (confidence 10) [EFDDBE87], AccurateRip returned [8C5C739F] (AR v2)
Copy OK


No tracks could be verified as accurate
You may have a different pressing from the one(s) in the database

No errors occurred

End of status report

==== Log checksum EB79A721A847FF016C3388CCCB2EF96E686F3B1327275E7066C94F589EC59514 ====

Savoy Brown - Raw Sienna (1970) {1990, Reissue}


All thanks go to st1958

>>> Savoy Brown in my Blog <<<

DOWNLOAD: