Subcategories
Tags
Language
Tags

Scaramouche - Scaramouche (1981) [Reissue 2007]

Posted By: gribovar
Scaramouche - Scaramouche (1981) [Reissue 2007]

Scaramouche - Scaramouche (1981) [Reissue 2007]
EAC Rip | WavPack (image+.cue+log) - 260 MB | MP3 CBR 320 kbps (LAME 3.93) - 97 MB | Covers - 139 MB
Genre: Progressive Rock | RAR 3% Rec. | Label: MALS (MALS 204)

Scaramouche introduces German musicians faithful to the kind of Progressive rock started by Yes, and especially Genesis, during the Seventies. The reissue of their eponymous album is from 1981, and shows an ambitious music that tastefully blends the most important rock influences with even some fusion and blues sometimes. The melodic and slightly medieval side present in their music can also remind of Machiavel. Anyway, the result is technically perfect with some beautiful instrumental solos.

Tracklist:
01. A Cloud in the Sky
02. Only Tail the Bait
03. Clown Leaves Berlin
04. Of Rooms and Open Doors
05. Find Me
06. Crentcantoe
07. Isn't It Real

Total time: 41:18

Exact Audio Copy V0.99 prebeta 5 from 4. May 2009

EAC extraction logfile from 2. April 2011, 21:59

Scaramouche / Scaramouche

Used drive : hp DVD-RAM GH40L Adapter: 7 ID: 0

Read mode : Secure
Utilize accurate stream : Yes
Defeat audio cache : Yes
Make use of C2 pointers : No

Read offset correction : 667
Overread into Lead-In and Lead-Out : No
Fill up missing offset samples with silence : Yes
Delete leading and trailing silent blocks : No
Null samples used in CRC calculations : Yes
Used interface : Installed external ASPI interface

Used output format : Internal WAV Routines
Sample format : 44.100 Hz; 16 Bit; Stereo


TOC of the extracted CD

Track | Start | Length | Start sector | End sector
––––––––––––––––––––––––––––-
1 | 0:00.32 | 6:08.08 | 32 | 27639
2 | 6:08.40 | 4:06.67 | 27640 | 46156
3 | 10:15.32 | 5:01.60 | 46157 | 68791
4 | 15:17.17 | 3:34.38 | 68792 | 84879
5 | 18:51.55 | 5:13.25 | 84880 | 108379
6 | 24:05.05 | 7:54.00 | 108380 | 143929
7 | 31:59.05 | 9:18.40 | 143930 | 185819


Range status and errors

Selected range

Filename C:\Users\WAN0777\Desktop\Rip by WANO777\Scaramouche - Scaramouche.wav

Peak level 91.9 %
Range quality 100.0 %
Test CRC 755B0A01
Copy CRC 755B0A01
Copy OK

No errors occurred


AccurateRip summary

Track 1 not present in database
Track 2 not present in database
Track 3 not present in database
Track 4 not present in database
Track 5 not present in database
Track 6 not present in database
Track 7 not present in database

None of the tracks are present in the AccurateRip database

End of status report

[CUETools log; Date: 17.06.2021 14:59:50; Version: 2.1.4]
Pregap length 00:00:32.
[CTDB TOCID: Z5HdTh1TYWZZP0C5njKIgn_thek-] found.
Track | CTDB Status
1 | (3/3) Accurately ripped
2 | (2/3) Accurately ripped
3 | (2/3) Accurately ripped
4 | (3/3) Accurately ripped
5 | (3/3) Accurately ripped
6 | (3/3) Accurately ripped
7 | (3/3) Accurately ripped
[AccurateRip ID: 000a281f-003d9c45-5209ad07] found.
Track [ CRC | V2 ] Status
01 [67460f61|9671d97b] (2+4/8) Accurately ripped
02 [9a52ca3b|72a12817] (2+4/8) Accurately ripped
03 [b7a3a0ae|1aee596e] (2+4/8) Accurately ripped
04 [e04f36db|ad32b12a] (2+4/8) Accurately ripped
05 [6162d66d|8258f11c] (2+4/8) Accurately ripped
06 [e9c9d667|7c22ad56] (2+4/8) Accurately ripped
07 [afbeaae4|4c4135c9] (2+4/8) Accurately ripped
Offsetted by 664:
01 [57f71511] (0/8) No match (V2 was not tested)
02 [5be4fddb] (0/8) No match (V2 was not tested)
03 [be5441ae] (0/8) No match (V2 was not tested)
04 [0150acc3] (0/8) No match (V2 was not tested)
05 [318f5b7d] (0/8) No match (V2 was not tested)
06 [893bd3f7] (0/8) No match (V2 was not tested)
07 [1207ad14] (0/8) No match (V2 was not tested)

Track Peak [ CRC32 ] [W/O NULL] [ LOG ]
– 91,9 [755B0A01] [BF95D5A0] CRC32
01 91,9 [FB9754CE] [5A4EE6F0]
02 89,2 [C25BBC02] [29B2F73B]
03 88,2 [C19D254B] [AA388402]
04 64,1 [367F2702] [EE8FC8CB]
05 69,9 [E2EA274B] [34EB4D63]
06 84,0 [050BB712] [525E3220]
07 89,7 [CE48189D] [19AD4B95]

Thanks to WAN0777