Subcategories

William Schuman - Symphonies Nos. 3 and 5, Judith (Seattle Symphony, Schwarz)

Posted By: tapaz9
William Schuman - Symphonies Nos. 3 and 5, Judith (Seattle Symphony, Schwarz)

William Schuman - Symphonies Nos. 3 and 5, Judith (Seattle Symphony, Schwarz)
Classical | EAC: FLAC+Cue+Log | 1 Cd, Covers + Booklet | 294 Mb
Date: 2006

William Schuman juggled many careers in his full and productive life: teacher, administrator, conductor and composer of ten symphonies as well as a significant representation of music in many genres. His two-movement Symphony No. 3, dating from 1941, derives its organization from Baroque era models. Known as Symphony No. 5, though published without a number, the Symphony for Strings is remarkable for its contrapuntal mastery and irresistible rhythmic élan. Judith (1949) was based on the ancient Hebrew tale of the Jewish widow who saved her people by seducing and beheading the despotic general Holofernes. The syncopated score conveys the anxiety and determination of Judith’s heroism.
Tracks:

01. Symphony No. 3 - I. Passacaglia and Fugue [0:12:23.24]
02. II. Chorale and Toccata [0:15:09.14]
03. Symphony No. 5, "Symphony for Strings" - I. Molto agitato ed energico [0:04:20.55]
04. II. Larghissimo [0:08:25.47]
05. III. Presto [0:05:09.27]
06. Judith [0:22:14.51]


Exact Audio Copy V1.0 beta 3 from 29. August 2011

EAC extraction logfile from 25. July 2013, 0:19

William Schuman / Symphonies Nos. 3 and 5, Judith (Seattle Symphony, Schwarz)

Used drive : TSSTcorpCDDVDW SH-S223C Adapter: 2 ID: 1

Read mode : Secure
Utilize accurate stream : Yes
Defeat audio cache : Yes
Make use of C2 pointers : No

Read offset correction : 697
Overread into Lead-In and Lead-Out : No
Fill up missing offset samples with silence : Yes
Delete leading and trailing silent blocks : No
Null samples used in CRC calculations : Yes
Used interface : Native Win32 interface for Win NT & 2000

Used output format : User Defined Encoder
Selected bitrate : 896 kBit/s
Quality : High
Add ID3 tag : No
Command line compressor : C:\Program Files (x86)\Exact Audio Copy\FLAC\FLAC.EXE
Additional command line options : -V -0 -T "COMMENT=Ripped by Tapaz9" -T "artist=%artist%" -T "title=%title%" -T "album=%albumtitle%" -T "date=%year%" -T "tracknumber=%tracknr%" -T "genre=%genre%" %source%


TOC of the extracted CD

Track | Start | Length | Start sector | End sector
––––––––––––––––––––––––––––-
1 | 0:00.00 | 12:23.24 | 0 | 55748
2 | 12:23.24 | 15:09.14 | 55749 | 123937
3 | 27:32.38 | 4:20.55 | 123938 | 143492
4 | 31:53.18 | 8:25.47 | 143493 | 181414
5 | 40:18.65 | 5:09.27 | 181415 | 204616
6 | 45:28.17 | 22:14.51 | 204617 | 304717


Range status and errors

Selected range

Filename F:\Musique\Schuman, William\Schuman_SymphoniesNos3and5\William Schuman - Symphonies Nos. 3 and 5, Judith (Seattle Symphony, Schwarz).wav

Peak level 94.2 %
Extraction speed 14.0 X
Range quality 100.0 %
Copy CRC 3318DBA6
Copy OK

No errors occurred

End of status report

==== Log checksum B4CDB559EC5431BD7E2D0257CA9CD90FC3701A72062FAE38835F434875AEF106 ====

No Mirrors and Torrent-uploads Please

For more classical music check out My Avax blog