Subcategories

Schumann Project - Complete Chamber Music With Piano - Eric Le Sage (2012)

Posted By: peotuvave
Schumann Project - Complete Chamber Music With Piano - Eric Le Sage (2012)

Schumann Project - Complete Chamber Music With Piano - Eric Le Sage (2012)
EAC Rip | Flac (Image + cue + log) | 7 CDs | Full Scans | 1.69 GB
Genre: Classical | Label: Alpha Productions | Catalog Number: 812

Schumann's chamber compositions are undoubtedly among the most important European works of the nineteenth century. Robert Schumann (1810-1856) was the archetypal Romantic composer, a man with unbounded imagination, who mastered almost every genre of his time.

His chamber music, which may be regarded as an extension of his piano music, enabled him to explore the construction of his works. This new box-set from ALPHA (seven CDs) presents for the first time Schumann's complete chamber music with piano, played by one of the great Schumann interpreters, who has been exploring this world with great success since 2005: Eric Le Sage.

The pianist is joined here by outstanding musicians Paul Meyer, Francois Salque, Franck Braley, Antoine Tamesit and others, who enable the listener to appreciate to the full these masterful works, written by genius of German Romanticism.

Composer: Robert Schumann
Performer: François Salque, Daishin Kashimoto, Gordan Nikolic, Lise Berthaud, …

Reviews: “in general Le Sage has shown himself to be much more convincing when collaborating with other performers than when left to his own interpretative devices. This set brings together all those chamber music recordings”

Tracklisting:

1. Quintet for Piano and Strings in E flat major, Op. 44 by Robert Schumann
Performer: François Salque (Cello), Daishin Kashimoto (Violin), Gordan Nikolic (Violin),
Lise Berthaud (Viola), Eric Le Sage (Piano)
Period: Romantic
Written: 1842; Germany

2. Quartet for Piano and Strings in E flat major, Op. 47 by Robert Schumann
Performer: François Salque (Cello), Daishin Kashimoto (Violin), Gordan Nikolic (Violin),
Lise Berthaud (Viola), Eric Le Sage (Piano)
Period: Romantic
Written: 1842; Germany

3. Trio for Piano and Strings no 1 in D minor, Op. 63 by Robert Schumann
Performer: Gordan Nikolic (Violin), Eric Le Sage (Piano), Christophe Coin (Cello)
Period: Romantic
Written: 1847; Germany
Date of Recording: 08/2009/11/2009
Venue: Salle Philharmonique de Liège
Length: 32 Minutes 18 Secs.

4. Piano Trio No. 2 in F major, Op. 80 by Robert Schumann
Performer: Gordan Nikolic (Violin), Eric Le Sage (Piano), Christophe Coin (Cello)
Period: Romantic
Written: 1847
Date of Recording: 08/2009/11/2009
Venue: Salle Philharmonique de Liège
Length: 26 Minutes 35 Secs.

5. Trio for Piano and Strings no 3 in G minor, Op. 110 by Robert Schumann
Performer: Gordan Nikolic (Violin), Eric Le Sage (Piano), Christophe Coin (Cello)
Period: Romantic
Written: 1851; Germany
Date of Recording: 08/2009/11/2009
Venue: Salle Philharmonique de Liège
Length: 26 Minutes 50 Secs.

6. Phantasiestücke for Piano, Violin and Cello, Op. 88 by Robert Schumann
Performer: Gordan Nikolic (Violin), Eric Le Sage (Piano), Christophe Coin (Cello)
Period: Romantic
Written: 1842; Germany
Date of Recording: 08/2009/11/2009
Venue: Salle Philharmonique de Liège
Length: 19 Minutes 15 Secs.

7. Etudes (6) in Canon Form for Pedal Piano, Op. 56 by Robert Schumann
Performer: Christophe Coin (Cello), Eric Le Sage (Piano), Paul Meyer (Clarinet)
Period: Romantic
Written: 1845; Germany
Date of Recording: 08/2009/11/2009
Venue: Salle Philharmonique de Liège
Length: 15 Minutes 42 Secs.

8. Ballszenen for Piano 4 hands, Op. 109 by Robert Schumann
Performer: Eric Le Sage (Piano), Frank Braley (Piano)
Period: Romantic
Written: 1851; Germany

9. Kinderball for Piano 4 hands, Op. 130 by Robert Schumann
Performer: Eric Le Sage (Piano), Denis Pascal (Piano)
Period: Romantic
Written: 1853; Germany

10. Romances (3) for Oboe and Piano, Op. 94 by Robert Schumann
Performer: Eric Le Sage (Piano), François Leleux (Oboe)
Period: Romantic
Written: 1849; Germany
Length: 12 Minutes 17 Secs.

11. Phantasiestücke (3) for Clarinet and Piano, Op. 73 by Robert Schumann
Performer: Paul Meyer (Clarinet), Eric Le Sage (Piano)
Period: Romantic
Written: 1849; Germany
Length: 10 Minutes 45 Secs.

12. Stücke (5) im Volkston for Cello and Piano, Op. 102 by Robert Schumann
Performer: Jean-Guihen Queyras (Cello), Eric Le Sage (Piano)
Period: Romantic
Written: 1849; Germany
Length: 15 Minutes 22 Secs.

13. Märchenbilder for Viola and Piano, Op. 113 by Robert Schumann
Performer: Eric Le Sage (Piano), Antoine Tamestit (Viola)
Period: Romantic
Written: 1851; Germany
Length: 9 Minutes 26 Secs.

14. Märchenerzählungen for Clarinet, Viola and Piano, Op. 132 by Robert Schumann
Performer: Antoine Tamestit (Viola), Paul Meyer (Clarinet), Eric Le Sage (Piano)
Period: Romantic
Written: 1853; Germany
Length: 14 Minutes 17 Secs.

15. Adagio and Allegro for Horn and Piano in A flat major, Op. 70 by Robert Schumann
Performer: Bruno Schneider (French Horn), Eric Le Sage (Piano)
Period: Romantic
Written: 1849; Germany
Length: 8 Minutes 9 Secs.

16. Sonata for Violin and Piano no 1 in A minor, Op. 105 by Robert Schumann
Performer: Gordan Nikolic (Violin), Eric Le Sage (Piano)
Period: Romantic
Written: 1851; Germany
Length: 17 Minutes 16 Secs.

17. Sonata for Violin and Piano no 2 in D minor, Op. 121 by Robert Schumann
Performer: Gordan Nikolic (Violin), Eric Le Sage (Piano)
Period: Romantic
Written: 1851; Germany
Length: 34 Minutes 9 Secs.

18. Sonata for Violin and Piano no 3 in A minor, WoO 27 by Robert Schumann
Performer: Gordan Nikolic (Violin), Eric Le Sage (Piano)
Period: Romantic
Written: 1853; Germany
Length: 20 Minutes 40 Secs.
19. Pieces (12) for Piano 4 hands, Op. 85 by Robert Schumann
Performer: Eric Le Sage (Piano)
Period: Romantic
Written: 1849; Germany

Exact Audio Copy V1.0 beta 3 from 29. August 2011

EAC extraction logfile from 17. July 2012, 21:24

Eric Le Sage / Schumann - Complete Chamber Music with Piano - Eric Le Sage (Vol. 1)

Used drive : HL-DT-STDVDRAM GSA-H10A Adapter: 0 ID: 0

Read mode : Secure
Utilize accurate stream : Yes
Defeat audio cache : Yes
Make use of C2 pointers : No

Read offset correction : 667
Overread into Lead-In and Lead-Out : No
Fill up missing offset samples with silence : Yes
Delete leading and trailing silent blocks : No
Null samples used in CRC calculations : Yes
Used interface : Native Win32 interface for Win NT & 2000

Used output format : User Defined Encoder
Selected bitrate : 1024 kBit/s
Quality : High
Add ID3 tag : No
Command line compressor : C:\Program Files\Exact Audio Copy\Flac\flac.exe
Additional command line options : -8 -V -T "TITLE=%title%" -T "ARTIST=%artist%" -T "ALBUMARTIST=%albumartist%" -T "ALBUM=%albumtitle%" -T "DATE=%year%" -T "TRACKNUMBER=%tracknr%" -T "TRACKTOTAL=%numtracks%" -T "GENRE=%genre%" -T "COMMENT=%comment%" -T "PERFORMER=%albuminterpret%" -T "COMPOSER=%composer%" %source% -o %dest%


TOC of the extracted CD

Track | Start | Length | Start sector | End sector
––––––––––––––––––––––––––––-
1 | 0:00.00 | 3:43.57 | 0 | 16781
2 | 3:43.57 | 4:02.14 | 16782 | 34945
3 | 7:45.71 | 4:34.73 | 34946 | 55568
4 | 12:20.69 | 3:16.31 | 55569 | 70299
5 | 15:37.25 | 2:57.27 | 70300 | 83601
6 | 18:34.52 | 3:32.47 | 83602 | 99548
7 | 22:07.24 | 3:09.06 | 99549 | 113729
8 | 25:16.30 | 3:15.16 | 113730 | 128370
9 | 28:31.46 | 3:57.34 | 128371 | 146179
10 | 32:29.05 | 1:42.00 | 146180 | 153829
11 | 34:11.05 | 3:20.52 | 153830 | 168881
12 | 37:31.57 | 3:11.04 | 168882 | 183210
13 | 40:42.61 | 3:45.72 | 183211 | 200157
14 | 44:28.58 | 2:30.09 | 200158 | 211416
15 | 46:58.67 | 5:26.50 | 211417 | 235916
16 | 52:25.42 | 2:59.20 | 235917 | 249361
17 | 55:24.62 | 3:01.52 | 249362 | 262988
18 | 58:26.39 | 4:09.40 | 262989 | 281703
19 | 62:36.04 | 4:08.29 | 281704 | 300332
20 | 66:44.33 | 3:42.37 | 300333 | 317019
21 | 70:26.70 | 4:27.22 | 317020 | 337066


Range status and errors

Selected range

Filename F:\Ripped general\[9728] Schumann - Complete Chamber Music with Piano - Eric Le Sage\cd1\Schumann - Complete Chamber Music with Piano - Eric Le Sage (Vol. 1).wav

Peak level 100.0 %
Extraction speed 7.5 X
Range quality 100.0 %
Test CRC 982B519D
Copy CRC 982B519D
Copy OK

No errors occurred


AccurateRip summary

Track 1 accurately ripped (confidence 5) [783637FE] (AR v2)
Track 2 accurately ripped (confidence 5) [1544491D] (AR v2)
Track 3 accurately ripped (confidence 5) [C9A55659] (AR v2)
Track 4 accurately ripped (confidence 5) [CDE8624F] (AR v2)
Track 5 accurately ripped (confidence 5) [1992A96C] (AR v2)
Track 6 accurately ripped (confidence 5) [F17BE6A1] (AR v2)
Track 7 accurately ripped (confidence 5) [CF96BA67] (AR v2)
Track 8 accurately ripped (confidence 5) [891F8CF4] (AR v2)
Track 9 accurately ripped (confidence 5) [C8AC44D3] (AR v2)
Track 10 accurately ripped (confidence 4) [B15CBE07] (AR v2)
Track 11 accurately ripped (confidence 6) [BC5A511F] (AR v2)
Track 12 accurately ripped (confidence 5) [B93E67B8] (AR v2)
Track 13 accurately ripped (confidence 5) [92C3C904] (AR v2)
Track 14 accurately ripped (confidence 5) [9818EE65] (AR v2)
Track 15 accurately ripped (confidence 5) [E6C78E48] (AR v2)
Track 16 accurately ripped (confidence 5) [8D70D014] (AR v2)
Track 17 accurately ripped (confidence 5) [88A90FAE] (AR v2)
Track 18 accurately ripped (confidence 5) [537EB394] (AR v2)
Track 19 accurately ripped (confidence 5) [65B3FCDC] (AR v2)
Track 20 accurately ripped (confidence 5) [249658E0] (AR v2)
Track 21 accurately ripped (confidence 4) [3807C933] (AR v2)

All tracks accurately ripped

End of status report

Exact Audio Copy V1.0 beta 3 from 29. August 2011

EAC extraction logfile from 17. July 2012, 21:47

Eric Le Sage / Schumann - Complete Chamber Music with Piano - Eric Le Sage (Vol. 2)

Used drive : HL-DT-STDVDRAM GSA-H10A Adapter: 0 ID: 0

Read mode : Secure
Utilize accurate stream : Yes
Defeat audio cache : Yes
Make use of C2 pointers : No

Read offset correction : 667
Overread into Lead-In and Lead-Out : No
Fill up missing offset samples with silence : Yes
Delete leading and trailing silent blocks : No
Null samples used in CRC calculations : Yes
Used interface : Native Win32 interface for Win NT & 2000

Used output format : User Defined Encoder
Selected bitrate : 1024 kBit/s
Quality : High
Add ID3 tag : No
Command line compressor : C:\Program Files\Exact Audio Copy\Flac\flac.exe
Additional command line options : -8 -V -T "TITLE=%title%" -T "ARTIST=%artist%" -T "ALBUMARTIST=%albumartist%" -T "ALBUM=%albumtitle%" -T "DATE=%year%" -T "TRACKNUMBER=%tracknr%" -T "TRACKTOTAL=%numtracks%" -T "GENRE=%genre%" -T "COMMENT=%comment%" -T "PERFORMER=%albuminterpret%" -T "COMPOSER=%composer%" %source% -o %dest%


TOC of the extracted CD

Track | Start | Length | Start sector | End sector
––––––––––––––––––––––––––––-
1 | 0:00.00 | 13:06.51 | 0 | 59000
2 | 13:06.51 | 4:29.71 | 59001 | 79246
3 | 17:36.47 | 6:41.04 | 79247 | 109325
4 | 24:17.51 | 8:53.39 | 109326 | 149339
5 | 33:11.15 | 7:59.37 | 149340 | 185301
6 | 41:10.52 | 3:53.70 | 185302 | 202846
7 | 45:04.47 | 5:24.72 | 202847 | 227218
8 | 50:29.44 | 7:01.27 | 227219 | 258820
9 | 57:30.71 | 3:13.21 | 258821 | 273316
10 | 60:44.17 | 2:38.09 | 273317 | 285175
11 | 63:22.26 | 6:48.07 | 285176 | 315782


Range status and errors

Selected range

Filename F:\Ripped general\[9728] Schumann - Complete Chamber Music with Piano - Eric Le Sage\cd2\Schumann - Complete Chamber Music with Piano - Eric Le Sage (Vol. 2).wav

Peak level 99.2 %
Extraction speed 7.5 X
Range quality 99.9 %
Test CRC 4DBD0BED
Copy CRC 4DBD0BED
Copy OK

No errors occurred


AccurateRip summary

Track 1 accurately ripped (confidence 5) [06CD04F9] (AR v2)
Track 2 accurately ripped (confidence 5) [A7F9B282] (AR v2)
Track 3 accurately ripped (confidence 5) [8064D4F0] (AR v2)
Track 4 accurately ripped (confidence 5) [719CCD70] (AR v2)
Track 5 accurately ripped (confidence 5) [04EAB4DD] (AR v2)
Track 6 accurately ripped (confidence 5) [A073F2EA] (AR v2)
Track 7 accurately ripped (confidence 5) [8E150F23] (AR v2)
Track 8 accurately ripped (confidence 5) [E91B792F] (AR v2)
Track 9 accurately ripped (confidence 5) [B02AE1D9] (AR v2)
Track 10 accurately ripped (confidence 5) [A71A7696] (AR v2)
Track 11 accurately ripped (confidence 5) [838CC53D] (AR v2)

All tracks accurately ripped

End of status report

Exact Audio Copy V1.0 beta 3 from 29. August 2011

EAC extraction logfile from 17. July 2012, 22:09

Eric le Sage / Schumann - Complete Chamber Music with Piano - Eric Le Sage (Vol. 3)

Used drive : HL-DT-STDVDRAM GSA-H10A Adapter: 0 ID: 0

Read mode : Secure
Utilize accurate stream : Yes
Defeat audio cache : Yes
Make use of C2 pointers : No

Read offset correction : 667
Overread into Lead-In and Lead-Out : No
Fill up missing offset samples with silence : Yes
Delete leading and trailing silent blocks : No
Null samples used in CRC calculations : Yes
Used interface : Native Win32 interface for Win NT & 2000

Used output format : User Defined Encoder
Selected bitrate : 1024 kBit/s
Quality : High
Add ID3 tag : No
Command line compressor : C:\Program Files\Exact Audio Copy\Flac\flac.exe
Additional command line options : -8 -V -T "TITLE=%title%" -T "ARTIST=%artist%" -T "ALBUMARTIST=%albumartist%" -T "ALBUM=%albumtitle%" -T "DATE=%year%" -T "TRACKNUMBER=%tracknr%" -T "TRACKTOTAL=%numtracks%" -T "GENRE=%genre%" -T "COMMENT=%comment%" -T "PERFORMER=%albuminterpret%" -T "COMPOSER=%composer%" %source% -o %dest%


TOC of the extracted CD

Track | Start | Length | Start sector | End sector
––––––––––––––––––––––––––––-
1 | 0:00.00 | 19:02.46 | 0 | 85695
2 | 19:02.46 | 2:09.70 | 85696 | 95440
3 | 21:12.41 | 3:09.07 | 95441 | 109622
4 | 24:21.48 | 1:41.01 | 109623 | 117198
5 | 26:02.49 | 2:39.43 | 117199 | 129166
6 | 28:42.17 | 2:20.48 | 129167 | 139714
7 | 31:02.65 | 3:07.64 | 139715 | 153803
8 | 34:10.54 | 3:07.46 | 153804 | 167874
9 | 37:18.25 | 2:23.41 | 167875 | 178640
10 | 39:41.66 | 1:51.23 | 178641 | 186988
11 | 41:33.14 | 2:01.71 | 186989 | 196134
12 | 43:35.10 | 2:42.15 | 196135 | 208299
13 | 46:17.25 | 4:00.64 | 208300 | 226363


Range status and errors

Selected range

Filename F:\Ripped general\[9728] Schumann - Complete Chamber Music with Piano - Eric Le Sage\cd3\Schumann - Complete Chamber Music with Piano - Eric Le Sage (Vol. 3).wav

Peak level 97.5 %
Extraction speed 7.3 X
Range quality 100.0 %
Test CRC 67D77E18
Copy CRC 67D77E18
Copy OK

No errors occurred


AccurateRip summary

Track 1 not present in database
Track 2 not present in database
Track 3 not present in database
Track 4 not present in database
Track 5 not present in database
Track 6 not present in database
Track 7 not present in database
Track 8 not present in database
Track 9 not present in database
Track 10 not present in database
Track 11 not present in database
Track 12 not present in database
Track 13 not present in database

None of the tracks are present in the AccurateRip database

End of status report

Exact Audio Copy V1.0 beta 3 from 29. August 2011

EAC extraction logfile from 17. July 2012, 22:31

Eric le Sage / Schumann - Complete Chamber Music with Piano - Eric Le Sage (Vol. 4)

Used drive : HL-DT-STDVDRAM GSA-H10A Adapter: 0 ID: 0

Read mode : Secure
Utilize accurate stream : Yes
Defeat audio cache : Yes
Make use of C2 pointers : No

Read offset correction : 667
Overread into Lead-In and Lead-Out : No
Fill up missing offset samples with silence : Yes
Delete leading and trailing silent blocks : No
Null samples used in CRC calculations : Yes
Used interface : Native Win32 interface for Win NT & 2000

Used output format : User Defined Encoder
Selected bitrate : 1024 kBit/s
Quality : High
Add ID3 tag : No
Command line compressor : C:\Program Files\Exact Audio Copy\Flac\flac.exe
Additional command line options : -8 -V -T "TITLE=%title%" -T "ARTIST=%artist%" -T "ALBUMARTIST=%albumartist%" -T "ALBUM=%albumtitle%" -T "DATE=%year%" -T "TRACKNUMBER=%tracknr%" -T "TRACKTOTAL=%numtracks%" -T "GENRE=%genre%" -T "COMMENT=%comment%" -T "PERFORMER=%albuminterpret%" -T "COMPOSER=%composer%" %source% -o %dest%


TOC of the extracted CD

Track | Start | Length | Start sector | End sector
––––––––––––––––––––––––––––-
1 | 0:00.00 | 2:21.52 | 0 | 10626
2 | 2:21.52 | 1:23.63 | 10627 | 16914
3 | 3:45.40 | 2:13.21 | 16915 | 26910
4 | 5:58.61 | 1:35.52 | 26911 | 34087
5 | 7:34.38 | 2:12.68 | 34088 | 44055
6 | 9:47.31 | 1:57.17 | 44056 | 52847
7 | 11:44.48 | 3:22.65 | 52848 | 68062
8 | 15:07.38 | 1:46.10 | 68063 | 76022
9 | 16:53.48 | 2:27.06 | 76023 | 87053
10 | 19:20.54 | 1:22.15 | 87054 | 93218
11 | 20:42.69 | 2:55.63 | 93219 | 106406
12 | 23:38.57 | 2:44.09 | 106407 | 118715
13 | 26:22.66 | 1:18.51 | 118716 | 124616
14 | 27:41.42 | 3:11.39 | 124617 | 138980
15 | 30:53.06 | 1:35.27 | 138981 | 146132
16 | 32:28.33 | 2:15.17 | 146133 | 156274
17 | 34:43.50 | 1:56.72 | 156275 | 165046
18 | 36:40.47 | 3:52.25 | 165047 | 182471
19 | 40:32.72 | 2:58.49 | 182472 | 195870
20 | 43:31.46 | 3:24.02 | 195871 | 211172
21 | 46:55.48 | 4:35.54 | 211173 | 231851
22 | 51:31.27 | 3:00.24 | 231852 | 245375
23 | 54:31.51 | 1:21.05 | 245376 | 251455
24 | 55:52.56 | 2:09.48 | 251456 | 261178
25 | 58:02.29 | 0:58.53 | 261179 | 265581
26 | 59:01.07 | 1:14.57 | 265582 | 271188
27 | 60:15.64 | 2:37.48 | 271189 | 283011


Range status and errors

Selected range

Filename F:\Ripped general\[9728] Schumann - Complete Chamber Music with Piano - Eric Le Sage\cd4\Schumann - Complete Chamber Music with Piano - Eric Le Sage (Vol. 4).wav

Peak level 95.6 %
Extraction speed 7.2 X
Range quality 99.9 %
Test CRC 06E108CB
Copy CRC 06E108CB
Copy OK

No errors occurred


AccurateRip summary

Track 1 accurately ripped (confidence 2) [E43FEA47] (AR v2)
Track 2 accurately ripped (confidence 2) [F9D89F83] (AR v2)
Track 3 accurately ripped (confidence 2) [FDEC0B67] (AR v2)
Track 4 accurately ripped (confidence 2) [08B6D925] (AR v2)
Track 5 accurately ripped (confidence 2) [93978968] (AR v2)
Track 6 accurately ripped (confidence 2) [65683119] (AR v2)
Track 7 accurately ripped (confidence 2) [6A0B466C] (AR v2)
Track 8 accurately ripped (confidence 2) [22FC6CE8] (AR v2)
Track 9 accurately ripped (confidence 2) [C174B655] (AR v2)
Track 10 accurately ripped (confidence 2) [218E1B40] (AR v2)
Track 11 accurately ripped (confidence 2) [B9E730B5] (AR v2)
Track 12 accurately ripped (confidence 2) [415E955F] (AR v2)
Track 13 accurately ripped (confidence 2) [969AC966] (AR v2)
Track 14 accurately ripped (confidence 2) [F404BAFC] (AR v2)
Track 15 accurately ripped (confidence 2) [93DB556C] (AR v2)
Track 16 accurately ripped (confidence 2) [E4BD34AD] (AR v2)
Track 17 accurately ripped (confidence 2) [BF24AEDA] (AR v2)
Track 18 accurately ripped (confidence 2) [D56C0AC6] (AR v2)
Track 19 accurately ripped (confidence 2) [C855F915] (AR v2)
Track 20 accurately ripped (confidence 2) [BFFA39A1] (AR v2)
Track 21 accurately ripped (confidence 2) [7A2F3407] (AR v2)
Track 22 accurately ripped (confidence 2) [84759C88] (AR v2)
Track 23 accurately ripped (confidence 2) [F4F59099] (AR v2)
Track 24 accurately ripped (confidence 2) [0A29C755] (AR v2)
Track 25 accurately ripped (confidence 2) [58BE037F] (AR v2)
Track 26 accurately ripped (confidence 2) [76ADFBAA] (AR v2)
Track 27 accurately ripped (confidence 2) [84ADB361] (AR v2)

All tracks accurately ripped

End of status report

Exact Audio Copy V1.0 beta 3 from 29. August 2011

EAC extraction logfile from 17. July 2012, 22:51

Eric le Sage / Schumann - Complete Chamber Music with Piano - Eric Le Sage (Vol. 5)

Used drive : HL-DT-STDVDRAM GSA-H10A Adapter: 0 ID: 0

Read mode : Secure
Utilize accurate stream : Yes
Defeat audio cache : Yes
Make use of C2 pointers : No

Read offset correction : 667
Overread into Lead-In and Lead-Out : No
Fill up missing offset samples with silence : Yes
Delete leading and trailing silent blocks : No
Null samples used in CRC calculations : Yes
Used interface : Native Win32 interface for Win NT & 2000

Used output format : User Defined Encoder
Selected bitrate : 1024 kBit/s
Quality : High
Add ID3 tag : No
Command line compressor : C:\Program Files\Exact Audio Copy\Flac\flac.exe
Additional command line options : -8 -V -T "TITLE=%title%" -T "ARTIST=%artist%" -T "ALBUMARTIST=%albumartist%" -T "ALBUM=%albumtitle%" -T "DATE=%year%" -T "TRACKNUMBER=%tracknr%" -T "TRACKTOTAL=%numtracks%" -T "GENRE=%genre%" -T "COMMENT=%comment%" -T "PERFORMER=%albuminterpret%" -T "COMPOSER=%composer%" %source% -o %dest%


TOC of the extracted CD

Track | Start | Length | Start sector | End sector
––––––––––––––––––––––––––––-
1 | 0:00.00 | 12:33.74 | 0 | 56548
2 | 12:33.74 | 4:56.07 | 56549 | 78755
3 | 17:30.06 | 7:01.68 | 78756 | 110398
4 | 24:31.74 | 8:28.25 | 110399 | 148523
5 | 33:00.24 | 7:54.46 | 148524 | 184119
6 | 40:54.70 | 7:55.08 | 184120 | 219752
7 | 48:50.03 | 5:32.67 | 219753 | 244719
8 | 54:22.70 | 5:54.39 | 244720 | 271308


Range status and errors

Selected range

Filename F:\Ripped general\[9728] Schumann - Complete Chamber Music with Piano - Eric Le Sage\cd5\Schumann - Complete Chamber Music with Piano - Eric Le Sage (Vol. 5).wav

Peak level 99.6 %
Extraction speed 7.2 X
Range quality 100.0 %
Test CRC 838F82B9
Copy CRC 838F82B9
Copy OK

No errors occurred


AccurateRip summary

Track 1 accurately ripped (confidence 3) [FB7921FD] (AR v2)
Track 2 accurately ripped (confidence 3) [EAF61490] (AR v2)
Track 3 accurately ripped (confidence 3) [A3E87176] (AR v2)
Track 4 accurately ripped (confidence 3) [279A6399] (AR v2)
Track 5 accurately ripped (confidence 3) [93E26B31] (AR v2)
Track 6 accurately ripped (confidence 3) [2634D0AD] (AR v2)
Track 7 accurately ripped (confidence 3) [5FCA767E] (AR v2)
Track 8 accurately ripped (confidence 3) [3B4609B4] (AR v2)

All tracks accurately ripped

End of status report

Exact Audio Copy V1.0 beta 3 from 29. August 2011

EAC extraction logfile from 17. July 2012, 23:15

Eric le Sage / Schumann - Complete Chamber Music with Piano - Eric Le Sage (Vol.6)

Used drive : HL-DT-STDVDRAM GSA-H10A Adapter: 0 ID: 0

Read mode : Secure
Utilize accurate stream : Yes
Defeat audio cache : Yes
Make use of C2 pointers : No

Read offset correction : 667
Overread into Lead-In and Lead-Out : No
Fill up missing offset samples with silence : Yes
Delete leading and trailing silent blocks : No
Null samples used in CRC calculations : Yes
Used interface : Native Win32 interface for Win NT & 2000

Used output format : User Defined Encoder
Selected bitrate : 1024 kBit/s
Quality : High
Add ID3 tag : No
Command line compressor : C:\Program Files\Exact Audio Copy\Flac\flac.exe
Additional command line options : -8 -V -T "TITLE=%title%" -T "ARTIST=%artist%" -T "ALBUMARTIST=%albumartist%" -T "ALBUM=%albumtitle%" -T "DATE=%year%" -T "TRACKNUMBER=%tracknr%" -T "TRACKTOTAL=%numtracks%" -T "GENRE=%genre%" -T "COMMENT=%comment%" -T "PERFORMER=%albuminterpret%" -T "COMPOSER=%composer%" %source% -o %dest%


TOC of the extracted CD

Track | Start | Length | Start sector | End sector
––––––––––––––––––––––––––––-
1 | 0:00.00 | 9:18.33 | 0 | 41882
2 | 9:18.33 | 6:13.60 | 41883 | 69917
3 | 15:32.18 | 4:00.65 | 69918 | 87982
4 | 19:33.08 | 7:19.73 | 87983 | 120980
5 | 26:53.06 | 2:15.18 | 120981 | 131123
6 | 29:08.24 | 7:18.42 | 131124 | 164015
7 | 36:26.66 | 3:19.68 | 164016 | 179008
8 | 39:46.59 | 6:23.48 | 179009 | 207781
9 | 46:10.32 | 2:11.28 | 207782 | 217634
10 | 48:21.60 | 4:01.45 | 217635 | 235754
11 | 52:23.30 | 1:33.03 | 235755 | 242732
12 | 53:56.33 | 2:44.50 | 242733 | 255082
13 | 56:41.08 | 2:27.17 | 255083 | 266124
14 | 59:08.25 | 3:26.69 | 266125 | 281643


Range status and errors

Selected range

Filename F:\Ripped general\[9728] Schumann - Complete Chamber Music with Piano - Eric Le Sage\cd6\Schumann - Complete Chamber Music with Piano - Eric Le Sage (Vol.6).wav

Peak level 89.7 %
Extraction speed 7.3 X
Range quality 99.9 %
Test CRC AC83A2B3
Copy CRC AC83A2B3
Copy OK

No errors occurred


AccurateRip summary

Track 1 accurately ripped (confidence 3) [7F542F82] (AR v2)
Track 2 accurately ripped (confidence 3) [F61F3489] (AR v2)
Track 3 accurately ripped (confidence 3) [2E392BD7] (AR v2)
Track 4 accurately ripped (confidence 3) [366FC7B3] (AR v2)
Track 5 accurately ripped (confidence 3) [E6F46635] (AR v2)
Track 6 accurately ripped (confidence 3) [4661CA3F] (AR v2)
Track 7 accurately ripped (confidence 3) [B2BEF842] (AR v2)
Track 8 accurately ripped (confidence 3) [121FA8D6] (AR v2)
Track 9 accurately ripped (confidence 3) [DB9D4EBA] (AR v2)
Track 10 accurately ripped (confidence 3) [ADCE3A99] (AR v2)
Track 11 accurately ripped (confidence 3) [219900DF] (AR v2)
Track 12 accurately ripped (confidence 3) [CD4357C4] (AR v2)
Track 13 accurately ripped (confidence 3) [9E3AFAE5] (AR v2)
Track 14 accurately ripped (confidence 3) [B7D24F8D] (AR v2)

All tracks accurately ripped

End of status report

Exact Audio Copy V1.0 beta 3 from 29. August 2011

EAC extraction logfile from 17. July 2012, 23:44

Eric le Sage / Schumann - Complete Chamber Music with Piano - Eric Le Sage (Vol.7)

Used drive : HL-DT-STDVDRAM GSA-H10A Adapter: 0 ID: 0

Read mode : Secure
Utilize accurate stream : Yes
Defeat audio cache : Yes
Make use of C2 pointers : No

Read offset correction : 667
Overread into Lead-In and Lead-Out : No
Fill up missing offset samples with silence : Yes
Delete leading and trailing silent blocks : No
Null samples used in CRC calculations : Yes
Used interface : Native Win32 interface for Win NT & 2000

Used output format : User Defined Encoder
Selected bitrate : 1024 kBit/s
Quality : High
Add ID3 tag : No
Command line compressor : C:\Program Files\Exact Audio Copy\Flac\flac.exe
Additional command line options : -8 -V -T "TITLE=%title%" -T "ARTIST=%artist%" -T "ALBUMARTIST=%albumartist%" -T "ALBUM=%albumtitle%" -T "DATE=%year%" -T "TRACKNUMBER=%tracknr%" -T "TRACKTOTAL=%numtracks%" -T "GENRE=%genre%" -T "COMMENT=%comment%" -T "PERFORMER=%albuminterpret%" -T "COMPOSER=%composer%" %source% -o %dest%


TOC of the extracted CD

Track | Start | Length | Start sector | End sector
––––––––––––––––––––––––––––-
1 | 0:00.00 | 8:44.64 | 0 | 39363
2 | 8:44.64 | 9:29.68 | 39364 | 82106
3 | 18:14.57 | 4:43.55 | 82107 | 103386
4 | 22:58.37 | 7:27.61 | 103387 | 136972
5 | 30:26.23 | 8:54.22 | 136973 | 177044
6 | 39:20.45 | 3:21.15 | 177045 | 192134
7 | 42:41.60 | 6:52.08 | 192135 | 223042
8 | 49:33.68 | 7:37.10 | 223043 | 257327


Range status and errors

Selected range

Filename F:\Ripped general\[9728] Schumann - Complete Chamber Music with Piano - Eric Le Sage\cd7\Schumann - Complete Chamber Music with Piano - Eric Le Sage (Vol.7).wav

Peak level 94.4 %
Extraction speed 4.6 X
Range quality 100.0 %
Test CRC 937B6528
Copy CRC 937B6528
Copy OK

No errors occurred


AccurateRip summary

Track 1 accurately ripped (confidence 2) [0AC44B79] (AR v2)
Track 2 accurately ripped (confidence 2) [A1F0D1B2] (AR v2)
Track 3 accurately ripped (confidence 2) [84BE57B0] (AR v2)
Track 4 accurately ripped (confidence 2) [1DA157F6] (AR v2)
Track 5 accurately ripped (confidence 2) [DC91503B] (AR v2)
Track 6 accurately ripped (confidence 2) [55F5D360] (AR v2)
Track 7 accurately ripped (confidence 2) [66347233] (AR v2)
Track 8 accurately ripped (confidence 2) [9CC154DF] (AR v2)

All tracks accurately ripped

End of status report


Thanks to the original releaser

Download:

Uploaded

CD01: Part 1 | Part 2
CD02: Part 1 | Part 2
CD 03 | CD 04 | CD 05 | CD 06 | CD 07
Scans

Rapidgator

Part 1 | Part 2
Part 1 | Part 2
CD 03 | CD 04 | CD 05 | CD 06 | CD 07
Scans