Subcategories

Schumann, Prokofiev, Liszt, Chopin - Carnegie Hall Debut Concert - Evgeny Kissin (1990)

Posted By: Goodspeed
Schumann, Prokofiev, Liszt, Chopin - Carnegie Hall Debut Concert - Evgeny Kissin (1990)

Schumann, Prokofiev, Liszt, Chopin - Carnegie Hall Debut Concert - Evgeny Kissin (1990)
EAC+LOG+CUE | FLAC (image) | 2 CD | RAR size: 150 + 257 + 72 MB | scans @ 600dpi | TT 102:28 | RS/FP/UL
Classical | BMG Classics/RCA Victor Red Seal | Released: November 10, 1990 | Catalog #: RD60443

This recording signaled Kissin's 'arrival'. There is so much to priase here, but one must remember that this is the playing of a teenager at his debut in the world's premier concert hall; imperfections are to be expected. Almost shocking, then, is the near-perfection of Kissin's playing, and not merely in getting round the notes, but in his complete command of every piece here.
While the Prokoviev is hair-raising, the real 'genius' piece here is the Liszt Spanish Rhapsody, by far the best I've encountered. Such power, control, singing line, humor, everything one might ask for in big Liszt playing. Anyone doubting Kissin's greatness need only listen to this. No matter how you slice it, one of the great debut recordings, in the same league as Argerich's (an exalted league to be sure).

Tracklist:

Disc: 1
1. Variations On The Name Abegg, Op. 1
2. Symphonic Etudes, Op. 13-Sinfonische Etuden: Theme
3. Symphonic Etudes, Op. 13-Sinfonische Etuden: Variation I
4. Symphonic Etudes, Op. 13-Sinfonische Etuden: Posthumous Variation I
5. Symphonic Etudes, Op. 13-Sinfonische Etuden: Variation II
6. Symphonic Etudes, Op. 13-Sinfonische Etuden: Variation III
7. Symphonic Etudes, Op. 13-Sinfonische Etuden: Variation IV
8. Symphonic Etudes, Op. 13-Sinfonische Etuden: Variation V
9. Symphonic Etudes, Op. 13-Sinfonische Etuden: Variation VI
10. Symphonic Etudes, Op. 13-Sinfonische Etuden: Posthumous Variation IV
11. Symphonic Etudes, Op. 13-Sinfonische Etuden: Posthumous Variation V
12. Symphonic Etudes, Op. 13-Sinfonische Etuden: Variation VII
13. Symphonic Etudes, Op. 13-Sinfonische Etuden: Posthumous Variation III
14. Symphonic Etudes, Op. 13-Sinfonische Etuden: Variation VIII
15. Symphonic Etudes, Op. 13-Sinfonische Etuden: Variation IX
16. Symphonic Etudes, Op. 13-Sinfonische Etuden: Posthumous Variation II
17. Symphonic Etudes, Op. 13-Sinfonische Etuden: Variation X
18. Symphonic Etudes, Op. 13-Sinfonische Etuden: Variation XI
19. Symphonic Etudes, Op. 13-Sinfonische Etuden: Finale

Disc: 2
1. Sonata No. 6, Op. 82 In A Major: Allegro moderato
2. Sonata No. 6, Op. 82 In A Major: Allegretto
3. Sonata No. 6, Op. 82 In A Major: Tempo di valzer lentissimo
4. Sonata No. 6, Op. 82 In A Major: Vivace
5. Liebestraum No. 3
6. Rhapsodie Espagnole: Folies d'Espangne et jota aragonesa
7. Waltz, Op.64, No. 2 In C Sharp Minor
8. Transcendental Etude, No. 10
9. Widmung
10. Etude, Op. 2, No. 3 In C Minor

Schumann, Prokofiev, Liszt, Chopin - Carnegie Hall Debut Concert - Evgeny Kissin (1990)


Info:
Recorded live at Carnegie Hall, September 30, 1990
Recording engineer: Laszek Wojcik
Post-production engineer: Thomas MacCluskey

Exact Audio Copy V1.0 beta 3 from 29. August 2011

EAC extraction logfile from 9. January 2013, 12:09

Evgeny Kissin / Carnegie Hall Debut Concert - September 30, 1990 [Disc 1]

Used drive : _NEC DVD_RW ND-2500A Adapter: 3 ID: 1

Read mode : Secure
Utilize accurate stream : Yes
Defeat audio cache : Yes
Make use of C2 pointers : No

Read offset correction : 48
Overread into Lead-In and Lead-Out : No
Fill up missing offset samples with silence : Yes
Delete leading and trailing silent blocks : No
Null samples used in CRC calculations : Yes
Used interface : Native Win32 interface for Win NT & 2000

Used output format : User Defined Encoder
Selected bitrate : 768 kBit/s
Quality : High
Add ID3 tag : No
Command line compressor : C:\Program Files\Exact Audio Copy\FLAC\FLAC.EXE
Additional command line options : -6 -V -T "ARTIST=%artist%" -T "TITLE=%title%" -T "ALBUM=%albumtitle%" -T "DATE=%year%" -T "TRACKNUMBER=%tracknr%" -T "GENRE=%genre%" -T "COMMENT=%comment%" -T "BAND=%albuminterpret%" -T "ALBUMARTIST=%albuminterpret%" -T "COMPOSER=%composer%" %haslyrics%–tag-from-file=LYRICS="%lyricsfile%"%haslyrics% -T "DISCNUMBER=%cdnumber%" -T "TOTALDISCS=%totalcds%" -T "TOTALTRACKS=%numtracks%" %hascover%–picture="%coverfile%"%hascover% %source% -o %dest%


TOC of the extracted CD

Track | Start | Length | Start sector | End sector
––––––––––––––––––––––––––––-
1 | 0:00.33 | 7:38.52 | 33 | 34434
2 | 7:39.10 | 1:42.48 | 34435 | 42132
3 | 9:21.58 | 1:00.70 | 42133 | 46702
4 | 10:22.53 | 0:44.65 | 46703 | 50067
5 | 11:07.43 | 1:42.67 | 50068 | 57784
6 | 12:50.35 | 0:48.60 | 57785 | 61444
7 | 13:39.20 | 0:58.15 | 61445 | 65809
8 | 14:37.35 | 0:32.63 | 65810 | 68272
9 | 15:10.23 | 0:55.57 | 68273 | 72454
10 | 16:06.05 | 3:45.05 | 72455 | 89334
11 | 19:51.10 | 1:55.70 | 89335 | 98029
12 | 21:47.05 | 0:46.28 | 98030 | 101507
13 | 22:33.33 | 1:56.52 | 101508 | 110259
14 | 24:30.10 | 2:51.48 | 110260 | 123132
15 | 27:21.58 | 0:37.07 | 123133 | 125914
16 | 27:58.65 | 2:15.28 | 125915 | 136067
17 | 30:14.18 | 0:40.25 | 136068 | 139092
18 | 30:54.43 | 1:59.37 | 139093 | 148054
19 | 32:54.05 | 5:43.28 | 148055 | 173807


Range status and errors

Selected range

Filename C:\EAC Extractions\Evgeny Kissin - Carnegie Hall Debut Concert - September 30, 1990 [Disc 1].wav

Peak level 89.0 %
Extraction speed 5.4 X
Range quality 99.9 %
Test CRC BB3ED0D0
Copy CRC BB3ED0D0
Copy OK

No errors occurred


AccurateRip summary

Track 1 accurately ripped (confidence 9) [D8D37114] (AR v1)
Track 2 accurately ripped (confidence 9) [F53104BD] (AR v1)
Track 3 accurately ripped (confidence 9) [B5D1FFD2] (AR v1)
Track 4 accurately ripped (confidence 9) [96B6C7FA] (AR v1)
Track 5 accurately ripped (confidence 9) [6AABE383] (AR v1)
Track 6 accurately ripped (confidence 9) [633ED3CB] (AR v1)
Track 7 accurately ripped (confidence 9) [FE52008E] (AR v1)
Track 8 accurately ripped (confidence 9) [14CA8C4D] (AR v1)
Track 9 accurately ripped (confidence 9) [2E3A0A29] (AR v1)
Track 10 accurately ripped (confidence 9) [D8A23C3C] (AR v1)
Track 11 accurately ripped (confidence 9) [26A8C6C5] (AR v1)
Track 12 accurately ripped (confidence 9) [3B43816C] (AR v1)
Track 13 accurately ripped (confidence 9) [5B8421FB] (AR v1)
Track 14 accurately ripped (confidence 9) [2DD5D680] (AR v1)
Track 15 accurately ripped (confidence 9) [887A8406] (AR v1)
Track 16 accurately ripped (confidence 9) [53F32962] (AR v1)
Track 17 accurately ripped (confidence 9) [951D5986] (AR v1)
Track 18 accurately ripped (confidence 9) [472CCCEE] (AR v1)
Track 19 accurately ripped (confidence 8) [B24EB38F] (AR v1)

All tracks accurately ripped

End of status report

==== Log checksum FC4EC05B347AB51935A68F127668FBD000D9BA0FF84FF8071C60593E554F91BD ====


Exact Audio Copy V1.0 beta 3 from 29. August 2011

EAC extraction logfile from 9. January 2013, 12:47

Evgeny Kissin / Carnegie Hall Debut Concert - September 30, 1990 [Disc 2]

Used drive : _NEC DVD_RW ND-2500A Adapter: 3 ID: 1

Read mode : Secure
Utilize accurate stream : Yes
Defeat audio cache : Yes
Make use of C2 pointers : No

Read offset correction : 48
Overread into Lead-In and Lead-Out : No
Fill up missing offset samples with silence : Yes
Delete leading and trailing silent blocks : No
Null samples used in CRC calculations : Yes
Used interface : Native Win32 interface for Win NT & 2000

Used output format : User Defined Encoder
Selected bitrate : 768 kBit/s
Quality : High
Add ID3 tag : No
Command line compressor : C:\Program Files\Exact Audio Copy\FLAC\FLAC.EXE
Additional command line options : -6 -V -T "ARTIST=%artist%" -T "TITLE=%title%" -T "ALBUM=%albumtitle%" -T "DATE=%year%" -T "TRACKNUMBER=%tracknr%" -T "GENRE=%genre%" -T "COMMENT=%comment%" -T "BAND=%albuminterpret%" -T "ALBUMARTIST=%albuminterpret%" -T "COMPOSER=%composer%" %haslyrics%–tag-from-file=LYRICS="%lyricsfile%"%haslyrics% -T "DISCNUMBER=%cdnumber%" -T "TOTALDISCS=%totalcds%" -T "TOTALTRACKS=%numtracks%" %hascover%–picture="%coverfile%"%hascover% %source% -o %dest%


TOC of the extracted CD

Track | Start | Length | Start sector | End sector
––––––––––––––––––––––––––––-
1 | 0:00.33 | 9:24.27 | 33 | 42359
2 | 9:24.60 | 5:00.55 | 42360 | 64914
3 | 14:25.40 | 7:53.13 | 64915 | 100402
4 | 22:18.53 | 7:10.62 | 100403 | 132714
5 | 29:29.40 | 4:34.28 | 132715 | 153292
6 | 34:03.68 | 13:51.40 | 153293 | 215657
7 | 47:55.33 | 3:52.07 | 215658 | 233064
8 | 51:47.40 | 4:48.40 | 233065 | 254704
9 | 56:36.05 | 3:49.60 | 254705 | 271939
10 | 60:25.65 | 3:42.43 | 271940 | 288632


Range status and errors

Selected range

Filename C:\EAC Extractions\Evgeny Kissin - Carnegie Hall Debut Concert - September 30, 1990 [Disc 2].wav

Peak level 92.1 %
Extraction speed 6.7 X
Range quality 99.9 %
Test CRC F72A7DC6
Copy CRC F72A7DC6
Copy OK

No errors occurred


AccurateRip summary

Track 1 accurately ripped (confidence 9) [55829564] (AR v1)
Track 2 accurately ripped (confidence 9) [D9D6FC74] (AR v1)
Track 3 accurately ripped (confidence 9) [0C835D2F] (AR v1)
Track 4 accurately ripped (confidence 9) [02A07F98] (AR v1)
Track 5 accurately ripped (confidence 9) [73C04B4E] (AR v1)
Track 6 accurately ripped (confidence 9) [7D884964] (AR v1)
Track 7 accurately ripped (confidence 9) [0BC0D2ED] (AR v1)
Track 8 accurately ripped (confidence 9) [DB281A89] (AR v1)
Track 9 accurately ripped (confidence 9) [A0497201] (AR v1)
Track 10 accurately ripped (confidence 9) [4966541B] (AR v1)

All tracks accurately ripped

End of status report

==== Log checksum E536C66AA06F73EE2883AD089206C5E6F06F59F22D3B3A5499996B51485D20C7 ====
FilePost:
Disc 1
Disc 2
Artwork

Rapidshare:
Disc 1
Disc 2
Artwork

Uploaded:
Disc 1
Disc 2
Artwork

password: Goodspeed