Tags
Language
Tags

Scorpions - Best Of Scorpions (1979) {2017, Hybrid SACD, Limited Edition, Remastered} Audio CD Layer

Posted By: popsakov
Scorpions - Best Of Scorpions (1979) {2017, Hybrid SACD, Limited Edition, Remastered} Audio CD Layer

Scorpions - Best Of Scorpions (1979) {2017, Hybrid SACD, Limited Edition, Remastered}
EAC Rip | FLAC (Tracks) + Cue + m3u + Log ~ 301 Mb | MP3 CBR320 ~ 105 Mb
Full Scans | 00:39:38 | RAR 5% Recovery
Hard Rock, Heavy Metal | Audio Fidelity #AFZ 266

When the Scorpions finally broke through to the mainstream in 1982, RCA released numerous compilations of the band's earlier work from the '70s. By no means should one think The Best of the Scorpions is for diehards only – the music here is quite enjoyable. RCA would go on to release several more Scorpions compilations (Best Of, Vol. 2, Hot & Heavy, Best of Rockers 'n' Ballads, etc.), but the original Best Of is still the wisest purchase.

~ Barry Weber, All Music
Scorpions - Best Of Scorpions (1979) {2017, Hybrid SACD, Limited Edition, Remastered} Audio CD Layer


***************

Scorpions - Best Of Scorpions (1979) {2017, Hybrid SACD, Limited Edition, Remastered} Audio CD Layer

Scorpions - Best Of Scorpions (1979) {2017, Hybrid SACD, Limited Edition, Remastered} Audio CD Layer

Track List:

01. Steamrock Fever [3:39]
02. Pictured Life [3:26]
03. Robot Man [2:47]
04. Backstage Queen [3:13]
05. Speedy's Coming [3:39]
06. Hell Cat [3:04]
07. He's a Woman - She's a Man [3:19]
08. In Trance [4:47]
09. Dark Lady [3:31]
10. The Sails of Charon [4:25]
11. Virgin Killer [3:47]

Personnel:
Bass Guitar – Francis Buchholz
Drums, Percussion – Herman Rarebell (tracks: 1, 7, 10), Jürgen Rosenthal (tracks: 5), Rudy Lenners (tracks: 2-4, 6, 8-9, 11)
Lead Guitar – Ulrich Roth
Rhythm Guitar – Rudolf Schenker
Vocals – Klaus Meine (tracks: 1-5, 7-11), Ulrich Roth (tracks: 6)

Mastered By (Mastered For This SACD By) – Steve Hoffman

Exact Audio Copy V1.1 from 23. June 2015

EAC extraction logfile from 17. November 2017, 20:53

Scorpions / Best of Scorpions

Used drive : ATAPI iHAS124 F Adapter: 1 ID: 1

Read mode : Secure
Utilize accurate stream : Yes
Defeat audio cache : Yes
Make use of C2 pointers : No

Read offset correction : 6
Overread into Lead-In and Lead-Out : No
Fill up missing offset samples with silence : Yes
Delete leading and trailing silent blocks : No
Null samples used in CRC calculations : Yes
Used interface : Native Win32 interface for Win NT & 2000
Gap handling : Appended to previous track

Used output format : User Defined Encoder
Selected bitrate : 1024 kBit/s
Quality : High
Add ID3 tag : No
Command line compressor : C:\Program Files (x86)\Exact Audio Copy\Flac\flac.exe
Additional command line options : -8 -V -T "ARTIST=%artist%" -T "TITLE=%title%" -T "ALBUM=%albumtitle%" -T "DATE=%year%" -T "TRACKNUMBER=%tracknr%" -T "GENRE=%genre%" -T "PERFORMER=%albuminterpret%" -T "COMPOSER=%composer%" %haslyrics%–tag-from-file=LYRICS="%lyricsfile%"%haslyrics% -T "ALBUMARTIST=%albumartist%" -T "DISCNUMBER=%cdnumber%" -T "TOTALDISCS=%totalcds%" -T "TOTALTRACKS=%numtracks%" -T "COMMENT=%comment%" %source% -o %dest%


TOC of the extracted CD

Track | Start | Length | Start sector | End sector
––––––––––––––––––––––––––––-
1 | 0:00.00 | 3:39.15 | 0 | 16439
2 | 3:39.15 | 3:26.13 | 16440 | 31902
3 | 7:05.28 | 2:46.43 | 31903 | 44395
4 | 9:51.71 | 3:13.35 | 44396 | 58905
5 | 13:05.31 | 3:39.18 | 58906 | 75348
6 | 16:44.49 | 3:04.03 | 75349 | 89151
7 | 19:48.52 | 3:19.08 | 89152 | 104084
8 | 23:07.60 | 4:46.63 | 104085 | 125597
9 | 27:54.48 | 3:31.18 | 125598 | 141440
10 | 31:25.66 | 4:25.22 | 141441 | 161337
11 | 35:51.13 | 3:46.62 | 161338 | 178349


Track 1

Filename E:\tmp\1979 - Best of Scorpions (2017 US Audio Fidelity AFZ 266 SACD) [FLAC]\01 - Steamrock Fever.wav

Pre-gap length 0:00:02.00

Peak level 97.2 %
Extraction speed 3.8 X
Track quality 100.0 %
Test CRC B56EB63A
Copy CRC B56EB63A
Track not present in AccurateRip database
Copy OK

Track 2

Filename E:\tmp\1979 - Best of Scorpions (2017 US Audio Fidelity AFZ 266 SACD) [FLAC]\02 - Pictured Life.wav

Peak level 95.0 %
Extraction speed 3.3 X
Track quality 99.9 %
Test CRC C5C48C14
Copy CRC C5C48C14
Track not present in AccurateRip database
Copy OK

Track 3

Filename E:\tmp\1979 - Best of Scorpions (2017 US Audio Fidelity AFZ 266 SACD) [FLAC]\03 - Robot Man.wav

Peak level 100.0 %
Extraction speed 4.3 X
Track quality 100.0 %
Test CRC 95026784
Copy CRC 95026784
Track not present in AccurateRip database
Copy OK

Track 4

Filename E:\tmp\1979 - Best of Scorpions (2017 US Audio Fidelity AFZ 266 SACD) [FLAC]\04 - Backstage Queen.wav

Peak level 98.0 %
Extraction speed 4.7 X
Track quality 100.0 %
Test CRC B87FE827
Copy CRC B87FE827
Track not present in AccurateRip database
Copy OK

Track 5

Filename E:\tmp\1979 - Best of Scorpions (2017 US Audio Fidelity AFZ 266 SACD) [FLAC]\05 - Speedy's Coming.wav

Peak level 94.8 %
Extraction speed 5.1 X
Track quality 100.0 %
Test CRC 13766812
Copy CRC 13766812
Track not present in AccurateRip database
Copy OK

Track 6

Filename E:\tmp\1979 - Best of Scorpions (2017 US Audio Fidelity AFZ 266 SACD) [FLAC]\06 - Hell Cat.wav

Peak level 96.1 %
Extraction speed 5.2 X
Track quality 100.0 %
Test CRC B65AE88F
Copy CRC B65AE88F
Track not present in AccurateRip database
Copy OK

Track 7

Filename E:\tmp\1979 - Best of Scorpions (2017 US Audio Fidelity AFZ 266 SACD) [FLAC]\07 - He's a Woman - She's a Man.wav

Peak level 99.3 %
Extraction speed 5.4 X
Track quality 100.0 %
Test CRC 2604F088
Copy CRC 2604F088
Track not present in AccurateRip database
Copy OK

Track 8

Filename E:\tmp\1979 - Best of Scorpions (2017 US Audio Fidelity AFZ 266 SACD) [FLAC]\08 - In Trance.wav

Peak level 97.3 %
Extraction speed 5.0 X
Track quality 99.9 %
Test CRC 7ECD8629
Copy CRC 7ECD8629
Track not present in AccurateRip database
Copy OK

Track 9

Filename E:\tmp\1979 - Best of Scorpions (2017 US Audio Fidelity AFZ 266 SACD) [FLAC]\09 - Dark Lady.wav

Peak level 100.0 %
Extraction speed 6.0 X
Track quality 100.0 %
Test CRC 8FE4972D
Copy CRC 8FE4972D
Track not present in AccurateRip database
Copy OK

Track 10

Filename E:\tmp\1979 - Best of Scorpions (2017 US Audio Fidelity AFZ 266 SACD) [FLAC]\10 - The Sails of Charon.wav

Peak level 98.5 %
Extraction speed 5.3 X
Track quality 99.9 %
Test CRC BF040EB1
Copy CRC BF040EB1
Track not present in AccurateRip database
Copy OK

Track 11

Filename E:\tmp\1979 - Best of Scorpions (2017 US Audio Fidelity AFZ 266 SACD) [FLAC]\11 - Virgin Killer.wav

Peak level 94.4 %
Extraction speed 6.5 X
Track quality 100.0 %
Test CRC 5EA9AC22
Copy CRC 5EA9AC22
Track not present in AccurateRip database
Copy OK


None of the tracks are present in the AccurateRip database

No errors occurred

End of status report

–– CUETools DB Plugin V2.1.6

[CTDB TOCID: rkU0HrG7LkrvbD7iw_GQiF182cU-] found
Submit result: rkU0HrG7LkrvbD7iw_GQiF182cU- has been confirmed
Track | CTDB Status
1 | (3/3) Accurately ripped
2 | (3/3) Accurately ripped
3 | (3/3) Accurately ripped
4 | (3/3) Accurately ripped
5 | (3/3) Accurately ripped
6 | (3/3) Accurately ripped
7 | (3/3) Accurately ripped
8 | (3/3) Accurately ripped
9 | (3/3) Accurately ripped
10 | (3/3) Accurately ripped
11 | (3/3) Accurately ripped


==== Log checksum 2BC420DA01C47908E79A82D619763813138ECA7A33511EE9909C36205EC2808A ====

foobar2000 1.3.16 / Dynamic Range Meter 1.1.1
log date: 2018-05-08 03:18:22

––––––––––––––––––––––––––––––––––––––––
Analyzed: Scorpions / Best of Scorpions
––––––––––––––––––––––––––––––––––––––––

DR Peak RMS Duration Track
––––––––––––––––––––––––––––––––––––––––
DR10 -0.24 dB -11.84 dB 3:39 01-Steamrock Fever
DR9 -0.44 dB -11.42 dB 3:26 02-Pictured Life
DR9 0.00 dB -11.29 dB 2:47 03-Robot Man
DR10 -0.17 dB -11.49 dB 3:13 04-Backstage Queen
DR11 -0.46 dB -12.84 dB 3:39 05-Speedy's Coming
DR10 -0.34 dB -12.53 dB 3:04 06-Hell Cat
DR11 -0.06 dB -12.88 dB 3:19 07-He's a Woman - She's a Man
DR10 -0.23 dB -13.74 dB 4:47 08-In Trance
DR9 0.00 dB -11.02 dB 3:31 09-Dark Lady
DR11 -0.12 dB -13.77 dB 4:25 10-The Sails of Charon
DR10 -0.50 dB -11.70 dB 3:47 11-Virgin Killer
––––––––––––––––––––––––––––––––––––––––

Number of tracks: 11
Official DR value: DR10

Samplerate: 44100 Hz
Channels: 2
Bits per sample: 16
Bitrate: 979 kbps
Codec: FLAC
================================================================================

[CUETools log; Date: 08.05.2018 3:17:59; Version: 2.1.6]
[CTDB TOCID: rkU0HrG7LkrvbD7iw_GQiF182cU-] found.
Track | CTDB Status
1 | (22/22) Accurately ripped
2 | (22/22) Accurately ripped
3 | (22/22) Accurately ripped
4 | (22/22) Accurately ripped
5 | (22/22) Accurately ripped
6 | (22/22) Accurately ripped
7 | (22/22) Accurately ripped
8 | (22/22) Accurately ripped
9 | (22/22) Accurately ripped
10 | (22/22) Accurately ripped
11 | (22/22) Accurately ripped
[AccurateRip ID: 000fab8e-0088dc24-99094a0b] found.
Track [ CRC | V2 ] Status
01 [6e906e2e|ae9fb6df] (00+16/16) Accurately ripped
02 [b3c2ad2c|7d66ff28] (00+16/16) Accurately ripped
03 [664b0468|2f09457a] (00+16/16) Accurately ripped
04 [eaf778a4|b0e4ce19] (00+16/16) Accurately ripped
05 [02a7badb|d1556b51] (00+16/16) Accurately ripped
06 [cd35ae1c|a46528c3] (00+16/16) Accurately ripped
07 [3be5e9d2|6fe0aa85] (00+16/16) Accurately ripped
08 [79c7b059|7fb87709] (00+16/16) Accurately ripped
09 [c13b8bd3|6872b2d6] (00+16/16) Accurately ripped
10 [037b42f9|f0ec558c] (00+16/16) Accurately ripped
11 [f37ed347|b5104e68] (00+16/16) Accurately ripped

Track Peak [ CRC32 ] [W/O NULL] [ LOG ]
– 100,0 [55B8FB0A] [54C08852]
01 97,2 [B56EB63A] [6561D47A] CRC32
02 95,0 [C5C48C14] [19A0B238] CRC32
03 100,0 [95026784] [FC29345C] CRC32
04 98,0 [B87FE827] [15DB3317] CRC32
05 94,8 [13766812] [C500D90B] CRC32
06 96,1 [B65AE88F] [1EE22772] CRC32
07 99,3 [2604F088] [BAC5F6FC] CRC32
08 97,3 [7ECD8629] [0305F842] CRC32
09 100,0 [8FE4972D] [A1BF1BFB] CRC32
10 98,5 [BF040EB1] [2A2B4D81] CRC32
11 94,4 [5EA9AC22] [6D573823] CRC32

Scorpions - Best Of Scorpions (1979) {2017, Hybrid SACD, Limited Edition, Remastered} Audio CD Layer


All thanks go to the original ripper(s) …

>>> Scorpions in my Blog <<<

DOWNLOAD: