Subcategories

Scorpions - Face The Heat (1993)

Posted By: popsakov
Scorpions - Face The Heat (1993)

Scorpions - Face The Heat (1993)
EAC Rip | FLAC (Img) + Cue + Log ~ 467 Mb | MP3 CBR320 ~ 161 Mb
Scans Included (JPG, 300 dpi) | RAR 5% Recovery
Hard Rock, Heavy Metal | Mercury #518 280-2

Face the Heat is the twelfth studio album released by the German hard rock band Scorpions in 1993. This album marked their status as a sort of political band with the song "Alien Nation", which was about the re-unification of Germany.[citation needed] This album had a contemporary touch to it, as the band were then going with the current trends, before later returning to their original style in Unbreakable in 2004. This is last album to feature drummer Herman Rarebell, and the first with Ralph Rieckermann on bass guitar.
~ Wiki

***************

Scorpions - Face The Heat (1993)

Scorpions - Face The Heat (1993)

Track List:

01. Alien Nation [5:44]
02. No Pain No Gain [3:55]
03. Someone To Touch [4:29]
04. Under The Same Sun [4:54]
05. Unholy Alliance [5:17]
06. Woman [5:57]
07. Hate To Be Nice [3:33]
08. Taxman Woman [4:30]
09. Ship Of Fools [4:15]
10. Nightmare Avenue [3:55]
11. Lonely Nights [4:50]
12. Destin [3:17]
13. Daddy's Girl [4:18]

Personnel:
Klaus Meine – lead vocals
Matthias Jabs – lead guitar, backing vocals
Rudolf Schenker – rhythm guitar, backing vocals
Ralph Rieckermann – bass, backing vocals
Herman Rarebell – drums, percussion, backing vocals

Additional musicians:
John Webster - keyboards
Luke Herzog - additional keyboards on "Woman" and "Lonely Nights", arrangements with Klaus Meine on "Woman"
Helen Donath - opera voice on "Ship of Fools"
Rhian Gittins - girl's voice on "Nightmare Avenue"
Paul Laine, Mark LaFrance - backing vocals
Bruce Fairbairn, Mark Hudson - backing vocals on "Under the Same Sun"

Exact Audio Copy V1.3 from 2. September 2016

EAC extraction logfile from 17. January 2018, 17:31

Scorpions / Face The Heat

Used drive : TSSTcorpCDDVDW SH-224GB Adapter: 1 ID: 0

Read mode : Secure
Utilize accurate stream : Yes
Defeat audio cache : Yes
Make use of C2 pointers : No

Read offset correction : 6
Overread into Lead-In and Lead-Out : No
Fill up missing offset samples with silence : Yes
Delete leading and trailing silent blocks : No
Null samples used in CRC calculations : Yes
Used interface : Native Win32 interface for Win NT & 2000

Used output format : User Defined Encoder
Selected bitrate : 128 kBit/s
Quality : High
Add ID3 tag : No
Command line compressor : C:\Program Files (x86)\Exact Audio Copy\FLAC\FLAC.EXE
Additional command line options : -V -8 -T "Date=%year%" -T "Genre=%genre%" %source%


TOC of the extracted CD

Track | Start | Length | Start sector | End sector
––––––––––––––––––––––––––––-
1 | 0:00.00 | 5:44.03 | 0 | 25802
2 | 5:44.03 | 3:55.02 | 25803 | 43429
3 | 9:39.05 | 4:28.53 | 43430 | 63582
4 | 14:07.58 | 4:53.57 | 63583 | 85614
5 | 19:01.40 | 5:17.25 | 85615 | 109414
6 | 24:18.65 | 5:56.68 | 109415 | 136182
7 | 30:15.58 | 3:33.30 | 136183 | 152187
8 | 33:49.13 | 4:30.20 | 152188 | 172457
9 | 38:19.33 | 4:15.37 | 172458 | 191619
10 | 42:34.70 | 3:54.73 | 191620 | 209242
11 | 46:29.68 | 4:50.15 | 209243 | 231007
12 | 51:20.08 | 3:17.02 | 231008 | 245784
13 | 54:37.10 | 4:17.73 | 245785 | 265132


Range status and errors

Selected range

Filename F:\ЕАС\rwa12\Scorpions - Face The Heat.wav

Peak level 97.7 %
Extraction speed 2.9 X
Range quality 99.9 %
Test CRC CE058CE2
Copy CRC CE058CE2
Copy OK

No errors occurred


AccurateRip summary

Track 1 accurately ripped (confidence 15) [5B20A4A3] (AR v2)
Track 2 accurately ripped (confidence 15) [BAC0103B] (AR v2)
Track 3 accurately ripped (confidence 15) [D9871D6D] (AR v2)
Track 4 accurately ripped (confidence 15) [5A6B7B88] (AR v2)
Track 5 accurately ripped (confidence 15) [E9AAE047] (AR v2)
Track 6 accurately ripped (confidence 15) [60802F4A] (AR v2)
Track 7 accurately ripped (confidence 15) [88515AEC] (AR v2)
Track 8 accurately ripped (confidence 15) [95E14FCC] (AR v2)
Track 9 accurately ripped (confidence 15) [A4A05F61] (AR v2)
Track 10 accurately ripped (confidence 15) [579F1222] (AR v2)
Track 11 accurately ripped (confidence 15) [7CA07789] (AR v2)
Track 12 accurately ripped (confidence 15) [7B94FC8A] (AR v2)
Track 13 accurately ripped (confidence 14) [E7C8C301] (AR v2)

All tracks accurately ripped

End of status report

–– CUETools DB Plugin V2.1.6

[CTDB TOCID: D.4kEVI6LHmiSScq3G0FPNArDm8-] found
Submit result: D.4kEVI6LHmiSScq3G0FPNArDm8- has been confirmed
Track | CTDB Status
1 | (49/49) Accurately ripped
2 | (49/49) Accurately ripped
3 | (49/49) Accurately ripped
4 | (49/49) Accurately ripped
5 | (48/49) Accurately ripped
6 | (48/49) Accurately ripped
7 | (49/49) Accurately ripped
8 | (49/49) Accurately ripped
9 | (49/49) Accurately ripped
10 | (49/49) Accurately ripped
11 | (49/49) Accurately ripped
12 | (49/49) Accurately ripped
13 | (49/49) Accurately ripped


==== Log checksum BE0E43F074A1888660DDF75963ED1A4A14A2E79D03AF3964F896262539E5653A ====

foobar2000 1.3.16 / Dynamic Range Meter 1.1.1
log date: 2018-01-20 12:43:13

––––––––––––––––––––––––––––––––––––––––
Analyzed: Scorpions / Face The Heat
––––––––––––––––––––––––––––––––––––––––

DR Peak RMS Duration Track
––––––––––––––––––––––––––––––––––––––––
DR7 -0.20 dB -7.88 dB 5:44 01-Alien Nation
DR7 -0.20 dB -8.39 dB 3:55 02-No Pain No Gain
DR7 -0.20 dB -8.44 dB 4:29 03-Someone To Touch
DR9 -0.20 dB -10.13 dB 4:54 04-Under The Same Sun
DR8 -0.20 dB -9.19 dB 5:17 05-Unholy Alliance
DR9 -0.20 dB -11.64 dB 5:57 06-Woman
DR8 -0.20 dB -9.05 dB 3:33 07-Hate To Be Nice
DR8 -0.20 dB -9.09 dB 4:30 08-Taxman Woman
DR8 -0.20 dB -9.26 dB 4:15 09-Ship Of Fools
DR8 -0.20 dB -8.96 dB 3:55 10-Nightmare Avenue
DR9 -0.20 dB -11.34 dB 4:50 11-Lonely Nights
DR10 -0.20 dB -11.63 dB 3:17 12-Destin
DR13 -0.20 dB -15.26 dB 4:18 13-Daddy's Girl
––––––––––––––––––––––––––––––––––––––––

Number of tracks: 13
Official DR value: DR8

Samplerate: 44100 Hz
Channels: 2
Bits per sample: 16
Bitrate: 1010 kbps
Codec: FLAC
================================================================================

[CUETools log; Date: 20.01.2018 12:43:20; Version: 2.1.5]
[CTDB TOCID: D.4kEVI6LHmiSScq3G0FPNArDm8-] found.
Track | CTDB Status
1 | (50/50) Accurately ripped
2 | (50/50) Accurately ripped
3 | (50/50) Accurately ripped
4 | (50/50) Accurately ripped
5 | (49/50) Accurately ripped
6 | (49/50) Accurately ripped
7 | (50/50) Accurately ripped
8 | (50/50) Accurately ripped
9 | (50/50) Accurately ripped
10 | (50/50) Accurately ripped
11 | (50/50) Accurately ripped
12 | (50/50) Accurately ripped
13 | (50/50) Accurately ripped
[AccurateRip ID: 001d78c8-01241081-aa0dcf0d] found.
Track [ CRC | V2 ] Status
01 [af4f4772|5b20a4a3] (07+15/25) Accurately ripped
02 [d63bff38|bac0103b] (07+15/25) Accurately ripped
03 [f6029b67|d9871d6d] (07+15/25) Accurately ripped
04 [f6715087|5a6b7b88] (07+15/25) Accurately ripped
05 [dddbeaaf|e9aae047] (07+15/25) Accurately ripped
06 [0b861760|60802f4a] (07+15/25) Accurately ripped
07 [c1195406|88515aec] (07+15/25) Accurately ripped
08 [1a5dce32|95e14fcc] (07+15/25) Accurately ripped
09 [05531c73|a4a05f61] (07+15/25) Accurately ripped
10 [98a01015|579f1222] (07+15/25) Accurately ripped
11 [427f20a0|7ca07789] (07+15/25) Accurately ripped
12 [9a62f46d|7b94fc8a] (07+15/25) Accurately ripped
13 [a3ce93c1|e7c8c301] (07+14/24) Accurately ripped
Offsetted by -90:
01 [54351c3e] (00/25) No match (V2 was not tested)
02 [e546b7d1] (00/25) No match (V2 was not tested)
03 [5a4f07e2] (00/25) No match (V2 was not tested)
04 [fdf22ee3] (00/25) No match (V2 was not tested)
05 [fbdac2cb] (00/25) No match (V2 was not tested)
06 [bd5e88ee] (00/25) No match (V2 was not tested)
07 [0832a540] (00/25) No match (V2 was not tested)
08 [3ed3f1de] (00/25) No match (V2 was not tested)
09 [4c133bc3] (00/25) No match (V2 was not tested)
10 [ad0c699b] (00/25) No match (V2 was not tested)
11 [6bf926da] (00/25) No match (V2 was not tested)
12 [df6e9b61] (00/25) No match (V2 was not tested)
13 [4f9712cc] (00/24) No match (V2 was not tested)

Track Peak [ CRC32 ] [W/O NULL] [ LOG ]
– 97,7 [CE058CE2] [6A104638] CRC32
01 97,7 [28BAF012] [AB710A8F]
02 97,7 [34706305] [3271748F]
03 97,7 [F1D2D688] [A08B82B3]
04 97,7 [B1EF32FF] [D5C2CA16]
05 97,7 [2CC0299D] [5AD71DB4]
06 97,7 [FC7735D5] [B4B01528]
07 97,7 [FCF86A05] [4F834984]
08 97,7 [0D457FBA] [ECFAF737]
09 97,7 [1846FC63] [B98ECF4B]
10 97,7 [FCDBF3D6] [9EBCF44C]
11 97,7 [A49FBE5A] [DA783854]
12 97,7 [95554638] [FBBFB91C]
13 97,7 [E317A091] [1BBA8A0A]

Scorpions - Face The Heat (1993)

All thanks go to rwa12

>>> Scorpions in my Blog <<<

Download from icerbox.com: