Subcategories

Scorpions - Face The Heat (1993) [2010, Universal Music UICY-94518, Japan]

Posted By: v3122
Scorpions - Face The Heat (1993) [2010, Universal Music UICY-94518, Japan]

Scorpions - Face The Heat (1993)
EAC | Flac(Image) + Cue + Log & MP3 CBR 320Kbps
Universal Music, UICY-945188 | ~ 465 or 143 Mb | Scans(jpg) -> 62 Mb
Hard Rock | Remastered

Face the Heat is the twelfth studio album released by the German hard rock band Scorpions in 1993.

It was produced by the band and the late Bruce Fairbairn and released on the PolyGram label. This album marked their status as a sort of political band with the song "Alien Nation", which was about the re-unification of Germany. This album had a contemporary touch to it, as the band were then going with the current trends, before later returning to their original style in Unbreakable in 2004. This is last album to feature drummer Herman Rarebell, and the first with Ralph Rieckermann on bass guitar.

The song "Under the Same Sun" was played during the ending credits of the 1994 film On Deadly Ground.

"Alien Nation" was covered by the Italian heavy metal band Mastercastle, recorded by Pier Gonella at MusicArt Studios and released as Japanese bonus track of their album The Phoenix…

~ wiki
Scorpions - Face The Heat (1993)):

Scorpions - Face The Heat (1993) [2010, Universal Music UICY-94518, Japan]

Tracklist:

01. Alien Nation (5:43)
02. No Pain No Gain (3:55)
03. Someone To Touch (4:29)
04. Under The Same Sun (4:54)
05. Unholy Alliance (5:17)
06. Woman (5:57)
07. Hate To Be Nice (3:34)
08. Taxman Woman (4:30)
09. Ship Of Fools (4:16)
10. Nightmare Avenue (3:55)
11. Lonely Nights (4:51)
12. Kami O Shin Jiru (3:50)
13. Daddy's Girl (4:18)

Exact Audio Copy V1.0 beta 3 from 29. August 2011

Отчёт EAC об извлечении, выполненном 11. ноября 2014, 18:38

Scorpions / Face The Heat

Дисковод: PIONEER DVD-RW DVR-220L Adapter: 0 ID: 0

Режим чтения : Достоверность
Использование точного потока : Да
Отключение кэша аудио : Да
Использование указателей C2 : Нет

Коррекция смещения при чтении : 6
Способность читать области Lead-in и Lead-out : Нет
Заполнение пропущенных сэмплов тишиной : Да
Удаление блоков с тишиной в начале и конце : Нет
При вычислениях CRC использовались нулевые сэмплы : Да
Интерфейс : Встроенный Win32-интерфейс для Win NT/2000

Выходной формат : Внутренние WAV-операции
Формат сэмплов : 44.100 Гц; 16 бит; стерео


TOC извлечённого CD

Трек | Старт | Длительность | Начальный сектор | Конечный сектор
––––––––––––––––––––––––––––––––––-
1 | 0:00.00 | 5:43.35 | 0 | 25759
2 | 5:43.35 | 3:54.57 | 25760 | 43366
3 | 9:38.17 | 4:28.52 | 43367 | 63518
4 | 14:06.69 | 4:53.57 | 63519 | 85550
5 | 19:00.51 | 5:17.27 | 85551 | 109352
6 | 24:18.03 | 5:56.53 | 109353 | 136105
7 | 30:14.56 | 3:33.54 | 136106 | 152134
8 | 33:48.35 | 4:30.10 | 152135 | 172394
9 | 38:18.45 | 4:15.41 | 172395 | 191560
10 | 42:34.11 | 3:54.56 | 191561 | 209166
11 | 46:28.67 | 4:51.03 | 209167 | 230994
12 | 51:19.70 | 3:49.57 | 230995 | 248226
13 | 55:09.52 | 4:18.32 | 248227 | 267608


Характеристики диапазона извлечения и сообщения об ошибках

Выбранный диапазон

Имя файла D:\Scorpions Collection by mewzik (3)\2010 - SHM CD Collection\1993 - Face The Heat\1993 - Face The Heat.wav

Пиковый уровень 100.0 %
Скорость извлечения 7.5 X
Качество диапазона 100.0 %
CRC теста AF5C7971
CRC копии AF5C7971
Копирование… OK

Ошибок не произошло


AccurateRip: сводка

Трек 1 : извлечено точно (доверие 2) [17547099] (AR v2)
Трек 2 : извлечено точно (доверие 2) [17D0EBFA] (AR v2)
Трек 3 : извлечено точно (доверие 2) [BB3BA6F0] (AR v2)
Трек 4 : извлечено точно (доверие 2) [1B14D186] (AR v2)
Трек 5 : извлечено точно (доверие 2) [21ECA847] (AR v2)
Трек 6 : извлечено точно (доверие 2) [4E0E5F88] (AR v2)
Трек 7 : извлечено точно (доверие 2) [F0DE25D7] (AR v2)
Трек 8 : извлечено точно (доверие 2) [091F2D80] (AR v2)
Трек 9 : извлечено точно (доверие 2) [1F87ACA7] (AR v2)
Трек 10 : извлечено точно (доверие 2) [F01D3123] (AR v2)
Трек 11 : извлечено точно (доверие 2) [709AC682] (AR v2)
Трек 12 : извлечено точно (доверие 2) [6AB905DF] (AR v2)
Трек 13 : извлечено точно (доверие 2) [6538B9B6] (AR v2)

Все треки извлечены точно

Конец отчёта


[CUETools log; Date: 26.10.2017 10:26:08; Version: 2.1.5]
[AccurateRip ID: 001d8981-012502fc-940df00d] found.
Track [ CRC | V2 ] Status
01 [a031ad81|17547099] (5+3/8) Accurately ripped
02 [c6a2c264|17d0ebfa] (5+3/8) Accurately ripped
03 [299325a3|bb3ba6f0] (5+3/8) Accurately ripped
04 [972bcd8e|1b14d186] (5+3/8) Accurately ripped
05 [ae98cadb|21eca847] (5+3/8) Accurately ripped
06 [4d512467|4e0e5f88] (5+3/8) Accurately ripped
07 [db4669fb|f0de25d7] (5+3/8) Accurately ripped
08 [aa389d54|091f2d80] (5+3/8) Accurately ripped
09 [5353d28f|1f87aca7] (5+3/8) Accurately ripped
10 [cc346dd3|f01d3123] (5+3/8) Accurately ripped
11 [0f39adf2|709ac682] (5+4/9) Accurately ripped
12 [250c17e9|6ab905df] (5+3/8) Accurately ripped
13 [4a2c938e|6538b9b6] (5+4/9) Accurately ripped

Track Peak [ CRC32 ] [W/O NULL] [ LOG ]
– 100,0 [AF5C7971] [2CA62FC6] CRC32
01 100,0 [33836C87] [1DB7CCFC]
02 100,0 [AE6BC4FB] [4A1A8106]
03 100,0 [B611892F] [B8C30D61]
04 100,0 [B0419A58] [0DA43040]
05 100,0 [2A70CAFA] [2338C1CB]
06 100,0 [3157E11B] [2D1B5424]
07 100,0 [AA1D3032] [9DCE67ED]
08 100,0 [1025C5C9] [2532A1E6]
09 100,0 [A19EA292] [EDD99101]
10 100,0 [0E1C25F8] [C2AC2A5A]
11 100,0 [AD512337] [0F304281]
12 100,0 [C341CDC9] [801B0A34]
13 100,0 [FB4609EF] [B7590C71]


Scorpions - Face The Heat (1993) [2010, Universal Music UICY-94518, Japan]

All thanks go to mewzik

Scorpions or Scorpions in my Blog

Download Scorpions - Face The Heat (1993):