Subcategories

Scorpions - Face The Heat (1993)

Posted By: Oksana_m
Scorpions - Face The Heat (1993)

Scorpions - Face The Heat (1993)
EAC | Flac(Image) + Cue + Log > 125 Mb | Mp3 CBR 320Kpbs > 44 Mb
Hard Rock, Classic Rock | Label: Polygram | Cat. # SCPRO 1 | UK
Scans Included | NitroFlare, FileFactory

Scorpions are a band who experimented with many styles of Rock music including 1970's Hard Rock and 1980's Hair / Glam Metal (Heavy Metal).

Known for their 80's rock anthem, "Rock You Like a Hurricane," as well as other popular songs such as, "No One Like You", "Send Me an Angel", "Still Loving You", and "Wind of Change," Scorpions were ranked #46 on VH1's "Greatest Artists of Hard Rock" television program. "Rock You Like a Hurricane" is also #18 on VH1's list of the 100 Greatest Hard Rock Songs. On January 24, 2010, after 45 years of performing, the band announced that they will be retiring after touring in support of their new album "Sting In The Tail". The band sold over 100 million albums worldwide. Other sources named over 150 Million albums sale.

discogs.com

*********

Scorpions - Face The Heat (1993)

Tracklist:

01. Alien Nation (5:45)
02. Nightmare Avenue (3:54)
03. Unholy Alliance (5:16)

Exact Audio Copy V1.0 beta 3 from 29. August 2011

Отчёт EAC об извлечении, выполненном 15. ноября 2014, 20:15

Scorpions / Face The Heat

Дисковод: PIONEER DVD-RW DVR-220L Adapter: 0 ID: 0

Режим чтения : Достоверность
Использование точного потока : Да
Отключение кэша аудио : Да
Использование указателей C2 : Нет

Коррекция смещения при чтении : 6
Способность читать области Lead-in и Lead-out : Нет
Заполнение пропущенных сэмплов тишиной : Да
Удаление блоков с тишиной в начале и конце : Нет
При вычислениях CRC использовались нулевые сэмплы : Да
Интерфейс : Встроенный Win32-интерфейс для Win NT/2000

Выходной формат : Внутренние WAV-операции
Формат сэмплов : 44.100 Гц; 16 бит; стерео


TOC извлечённого CD

Трек | Старт | Длительность | Начальный сектор | Конечный сектор
––––––––––––––––––––––––––––––––––-
1 | 0:00.00 | 5:44.55 | 0 | 25854
2 | 5:44.55 | 3:54.30 | 25855 | 43434
3 | 9:39.10 | 5:16.27 | 43435 | 67161


Характеристики диапазона извлечения и сообщения об ошибках

Выбранный диапазон

Имя файла D:\Scorpions Collection by mewzik (3)\Promos\1993 - Face The Heat\1993 - Face The Heat.wav

Пиковый уровень 97.7 %
Скорость извлечения 5.5 X
Качество диапазона 100.0 %
CRC теста AEE56E3A
CRC копии AEE56E3A
Копирование… OK

Ошибок не произошло


AccurateRip: сводка

Трек 1 отсутствует в базе данных
Трек 2 отсутствует в базе данных
Трек 3 отсутствует в базе данных

Ни одного трека нет в базе AccurateRip

Конец отчёта

foobar2000 1.2.9 / Dynamic Range Meter 1.1.1
log date: 2016-11-04 09:25:47

––––––––––––––––––––––––––––––––––––––––
Analyzed: Scorpions / Face The Heat
––––––––––––––––––––––––––––––––––––––––

DR Peak RMS Duration Track
––––––––––––––––––––––––––––––––––––––––
DR7 -0.20 dB -7.88 dB 5:45 01-Alien Nation
DR8 -0.20 dB -8.96 dB 3:54 02-Nightmare Avenue
DR8 -0.20 dB -9.19 dB 5:16 03-Unholy Alliance
––––––––––––––––––––––––––––––––––––––––

Number of tracks: 3
Official DR value: DR8

Samplerate: 44100 Hz
Channels: 2
Bits per sample: 16
Bitrate: 1058 kbps
Codec: FLAC

Scorpions - Face The Heat (1993)

All thanks go to original releaser mewzik