Subcategories

Scorpions - Lovedrive (1979) {2001, Japanese Reissue, Remastered}

Posted By: popsakov
Scorpions - Lovedrive (1979) {2001, Japanese Reissue, Remastered}

Scorpions - Lovedrive (1979) {2001, Japanese Reissue, Remastered}
EAC Rip | FLAC (Img) + Cue + Log ~ 276 Mb | MP3 CBR320 ~ 89 Mb
Full Scans ~ 77 Mb | 00:36:54 | RAR 5% Recovery
Hard Rock | Harvest / Toshiba-EMI Ltd. #TOCP-53204

Lovedrive is the sixth studio album by the German band Scorpions, released in 1979. Considered by some critics to be the pinnacle of their career, Lovedrive was a major evolution of the band's sound, exhibiting their "classic style" that would be later developed over their next few albums. Lovedrive cemented the "Scorpions formula" of hard rock songs combined with melodic ballads. Lovedrive was the band’s first album to be released by Harvest/EMI following the band's departure from label RCA, and proved a major commercial breakthrough, reaching number 55 on the Billboard Top 200, which none of their previous five albums had dented at all. The RIAA certified the record as Gold on 28 May 1986, and the album also proved a breakthrough in the UK where it was the first Scorpions album to chart and peaked at number 36. Lovedrive ranked 25 on IGN's 2007 list of the top 25 metal albums.

Prior to Lovedrive's recording, the Scorpions' lineup had a major change when their lead guitarist, Uli Jon Roth, quit the group (not to mention, the rock genre was rapidly changing). With this in mind, the band not only highlighted the album with the licks and riffs of three guitarists (Rudolf Schenker, Michael Schenker, Matthias Jabs), but they also dramatically changed their style to sound more like that of Van Halen. This change is quite welcome; not only are the performances more unpredictable, but the lyrics and melodies are better written. In fact, some of the Scorpions' best songs, such as "Loving You Sunday Morning," "Holiday," and "Coast to Coast" are found here, making it one of their finest.

~ Barry Weber, All Music

***************

Scorpions - Lovedrive (1979) {2001, Japanese Reissue, Remastered}

Track List:

01. Loving You Sunday Morning [05:40]
02. Another Piece Of Meat [03:32]
03. Always Somewhere [04:58]
04. Coast To Coast [04:44]
05. Can't Get Enough [02:38]
06. Is There Anybody There? [03:59]
07. Lovedrive [04:53]
08. Holiday [06:33]

Exact Audio Copy V0.99 prebeta 5 from 4. May 2009

Archivo Log de extracciones desde 18. Mayo 2013, 19:20

SCORPIONS / Lovedrive - Japan (TOCP-53204)

Usar unidad : HL-DT-STDVDRAM GH22NS70 Adapter: 0 ID: 0

Modo de Lectura : Seguro
Utilizar Corriente Exacta : Sн
Descartar Audio cachй : Sн
Utilizar los punteros C2 : No

Correcciуn de Desplazamiento de Lectura : 667
Sobreleer tanto en Lead-In como en Lead-Out : No
Rellenar las muestras faltantes con silencios : Sн
Eliminar silencios inicial y final : No
Se han usado muestras nulas en los cбlculos CRC : Sн
Interfaz usada : Interfaz propio de Win32 para Windowns NT y 2000

Formato de Salida utilizado : Compresor definido por el usuario
Bitrate seleccionado : 32 kBit/s
Calidad : Alta
Aсadir Etiqueta ID3 : No
Compresor de linea de comandos : C:\Program Files (x86)\Exact Audio Copy\Flac\flac.exe
Opciones adicionales en lнnea de comandos : -6 -V %s


TOC del CD extraido

Pista | Inicio | Duraciуn | Sector inicial | Sector final
––––––––––––––––––––––––––––––-
1 | 0:00.00 | 5:39.60 | 0 | 25484
2 | 5:39.60 | 3:31.52 | 25485 | 41361
3 | 9:11.37 | 4:57.13 | 41362 | 63649
4 | 14:08.50 | 4:43.70 | 63650 | 84944
5 | 18:52.45 | 2:37.35 | 84945 | 96754
6 | 21:30.05 | 3:58.57 | 96755 | 114661
7 | 25:28.62 | 4:52.15 | 114662 | 136576
8 | 30:21.02 | 6:32.13 | 136577 | 165989


Gama de estados y errores

Seleccionar gama

Nombre de Archivo E:\Mъsica\EAC\Scorpions\Lovedrive\SCORPIONS - Lovedrive - Japan (TOCP-53204).wav

Nivel Pico 99.8 %
Gama de Calidad 99.9 %
Test CRC 4C38CD2A
Copiar CRC 4C38CD2A
Copia OK

Sin Errores


Resumen AccurateRip

Pista 1 no se puede verificar como preciso (confianza 1) [F1A0A707], AccurateRip devuelto [9357460F]
Pista 2 no se puede verificar como preciso (confianza 1) [A5F54399], AccurateRip devuelto [FCD2A2E6]
Pista 3 no se puede verificar como preciso (confianza 1) [B581597F], AccurateRip devuelto [9AAEB1A9]
Pista 4 no se puede verificar como preciso (confianza 1) [8D567361], AccurateRip devuelto [219A01D4]
Pista 5 no se puede verificar como preciso (confianza 1) [5CA1B58C], AccurateRip devuelto [F4EFB972]
Pista 6 no se puede verificar como preciso (confianza 1) [75D61677], AccurateRip devuelto [2EAC9E16]
Pista 7 no se puede verificar como preciso (confianza 1) [CD629ADB], AccurateRip devuelto [B5208798]
Pista 8 no se puede verificar como preciso (confianza 1) [9FD9F8D3], AccurateRip devuelto [894F9828]

No se verificarб ninguna pista como precisa
Puede que tengas una ediciуn diferente a la(s) de la base de datos

Final del Informe

[CUETools log; Date: 15.08.2016 22:55:15; Version: 2.1.5]
[CTDB TOCID: xcCNH57UOOCt6xi_qBftIr1EL_E-] found.
Track | CTDB Status
1 | (5/5) Accurately ripped
2 | (5/5) Accurately ripped
3 | (5/5) Accurately ripped
4 | (5/5) Accurately ripped
5 | (5/5) Accurately ripped
6 | (5/5) Accurately ripped
7 | (5/5) Accurately ripped
8 | (4/5) Accurately ripped, or (1/5) differs in 554 samples @06:31:70-06:31:71
[AccurateRip ID: 000b2152-00499c08-5208a508] found.
Track [ CRC | V2 ] Status
01 [f1a0a707|58725eb0] (0+4/4) Accurately ripped
02 [a5f54399|1d732d33] (0+4/4) Accurately ripped
03 [b581597f|e5cea9c9] (0+4/4) Accurately ripped
04 [8d567361|ec93ae48] (0+4/4) Accurately ripped
05 [5ca1b58c|a6b4f843] (0+4/4) Accurately ripped
06 [75d61677|afb462fc] (0+4/4) Accurately ripped
07 [cd629adb|1fd3bf00] (0+4/4) Accurately ripped
08 [9fd9f8d3|106776c5] (0+4/4) Accurately ripped
Offsetted by -1153:
01 [9357460f] (0/4) No match (V2 was not tested)
02 [fcd2a2e6] (0/4) No match (V2 was not tested)
03 [9aaeb1a9] (0/4) No match (V2 was not tested)
04 [219a01d4] (0/4) No match (V2 was not tested)
05 [f4efb972] (0/4) No match (V2 was not tested)
06 [2eac9e16] (0/4) No match (V2 was not tested)
07 [b5208798] (0/4) No match (V2 was not tested)
08 [894f9828] (0/4) No match (V2 was not tested)

Track Peak [ CRC32 ] [W/O NULL]
– 99,8 [4C38CD2A] [14709BCA]
01 99,6 [6EB2A294] [66E9DB80]
02 99,7 [464BC016] [AFFE3B2A]
03 99,6 [66EA63A4] [FB8C938A]
04 99,6 [49CCB18E] [7BBDABD1]
05 99,7 [89FDD2AD] [1D6E397F]
06 99,8 [B724C779] [7C462765]
07 99,6 [74920041] [4971BB4D]
08 99,5 [FB80C947] [D45D3D3C]

Scorpions - Lovedrive (1979) {2001, Japanese Reissue, Remastered}


All thanks go to the original ripper(s) …

>>> "Scorpions" in my Blog <<<

DOWNLOAD: