Subcategories

Scorpions - Pure Instinct (1996) [Japanese edition]

Posted By: v3122
Scorpions - Pure Instinct (1996) [Japanese edition]

Scorpions - Pure Instinct (1996)
EAC | Flac(Image) + Cue + Log & MP3 CBR 320Kbps
EastWest, AMCE-950 | ~ 402 or 131 Mb | Scans(jpg) -> 108 Mb
Hard Rock

Pure Instinct is the thirteenth studio album by the German hard rock band Scorpions, released in 1996.

The cover art for this album, as with several earlier Scorpions albums, was replaced with an alternative cover for some releases due to the nudity on the original cover. This is the only Scorpions album on which session musician Curt Cress plays drums. The album has more ballads than non-ballads. The song "You And I" gained some popularity and was often played on Scorpions concerts…

~ wiki
Scorpions - Pure Instinct (1996):

Scorpions - Pure Instinct (1996) [Japanese edition]

Tracklist:

01. Wild Child - 4:17
02. But The Best For You - 5:21
03. Does Anyone Know - 5:56
04. Stone In My Shoe - 4:38
05. Soul Behind The Face - 4:01
06. Oh Girl (I Wanna Be With You) - 3:50
07. When You Came Into My Life - 5:29
08. Where The River Flows - 4:11
09. Time Will Call Your Name - 3:57
10. You And I - 6:16
11. Are You The One - 3:14
12. She's Knocking At My Door - 3:20

Exact Audio Copy V1.0 beta 3 from 29. August 2011

Отчёт EAC об извлечении, выполненном 13. января 2012, 18:44

Scorpions / Pure Instinct (AMCE-950)

Дисковод: Optiarc DVD RW AD-5170A Adapter: 0 ID: 0

Режим чтения : Достоверность
Использование точного потока : Да
Отключение кэша аудио : Да
Использование указателей C2 : Нет

Коррекция смещения при чтении : 48
Способность читать области Lead-in и Lead-out : Нет
Заполнение пропущенных сэмплов тишиной : Да
Удаление блоков с тишиной в начале и конце : Нет
При вычислениях CRC использовались нулевые сэмплы : Да
Интерфейс : Встроенный Win32-интерфейс для Win NT/2000

Выходной формат : Внутренние WAV-операции
Формат сэмплов : 44.100 Гц; 16 бит; стерео


TOC извлечённого CD

Трек | Старт | Длительность | Начальный сектор | Конечный сектор
––––––––––––––––––––––––––––––––––-
1 | 0:00.00 | 4:17.00 | 0 | 19274
2 | 4:17.00 | 5:20.42 | 19275 | 43316
3 | 9:37.42 | 5:56.28 | 43317 | 70044
4 | 15:33.70 | 4:38.37 | 70045 | 90931
5 | 20:12.32 | 4:00.60 | 90932 | 108991
6 | 24:13.17 | 3:50.30 | 108992 | 126271
7 | 28:03.47 | 5:28.50 | 126272 | 150921
8 | 33:32.22 | 4:10.73 | 150922 | 169744
9 | 37:43.20 | 3:56.60 | 169745 | 187504
10 | 41:40.05 | 6:16.02 | 187505 | 215706
11 | 47:56.07 | 3:13.53 | 215707 | 230234
12 | 51:09.60 | 3:20.20 | 230235 | 245254


Характеристики диапазона извлечения и сообщения об ошибках

Выбранный диапазон

Имя файла D:\Scorpions\1996 - Pure Instinct\1996 - Pure Instinct (AMCE-950).wav

Пиковый уровень 100.0 %
Скорость извлечения 4.9 X
Качество диапазона 100.0 %
CRC теста 7DFD5D66
CRC копии 7DFD5D66
Копирование… OK

Ошибок не произошло


AccurateRip: сводка

Трек 1 : извлечено точно (доверие 2) [55644173] (AR v2)
Трек 2 : извлечено точно (доверие 2) [B8259017] (AR v2)
Трек 3 : извлечено точно (доверие 2) [038E42EB] (AR v2)
Трек 4 : извлечено точно (доверие 2) [2A356425] (AR v2)
Трек 5 : извлечено точно (доверие 2) [3C90996A] (AR v2)
Трек 6 : извлечено точно (доверие 2) [79BA29A3] (AR v2)
Трек 7 : извлечено точно (доверие 2) [25E574BE] (AR v2)
Трек 8 : извлечено точно (доверие 2) [C4F8BC33] (AR v2)
Трек 9 : извлечено точно (доверие 2) [B4737D30] (AR v2)
Трек 10 : извлечено точно (доверие 2) [B6C1D383] (AR v2)
Трек 11 : извлечено точно (доверие 2) [67ECE734] (AR v2)
Трек 12 : извлечено точно (доверие 2) [752C2EFF] (AR v2)

Все треки извлечены точно

Конец отчёта


[CUETools log; Date: 23.12.2017 20:34:59; Version: 2.1.5]
[AccurateRip ID: 00194d5a-00ea9b89-a60cc60c] found.
Track [ CRC | V2 ] Status
01 [88a655f8|55644173] (07+14/21) Accurately ripped
02 [a5e9ed13|b8259017] (07+13/20) Accurately ripped
03 [ae0f68b1|038e42eb] (07+13/20) Accurately ripped
04 [32e5905c|2a356425] (07+13/20) Accurately ripped
05 [219c23ec|3c90996a] (07+13/20) Accurately ripped
06 [d7bc3d13|79ba29a3] (07+13/20) Accurately ripped
07 [5bd7135c|25e574be] (07+13/20) Accurately ripped
08 [b9f831c7|c4f8bc33] (07+13/20) Accurately ripped
09 [11c9c087|b4737d30] (07+13/20) Accurately ripped
10 [997b3124|b6c1d383] (07+13/20) Accurately ripped
11 [fcd4bcf5|67ece734] (07+13/20) Accurately ripped
12 [f3b33bc5|752c2eff] (07+13/20) Accurately ripped

Track Peak [ CRC32 ] [W/O NULL] [ LOG ]
– 99,9 [7DFD5D66] [E766DEF9] CRC32
01 99,9 [8A683C38] [1C3D6FF7]
02 99,9 [19B55192] [AE8F745D]
03 99,9 [34844437] [EBE566B2]
04 99,9 [672CAD28] [0839C47A]
05 99,9 [433E0CA3] [2C21C6A8]
06 99,9 [B3489E19] [A0A8D6C4]
07 99,9 [5DAABEE9] [90752314]
08 99,9 [314F0485] [5C972858]
09 99,9 [69A84063] [029F9838]
10 99,9 [AA67CBFC] [3B0AF31B]
11 99,9 [88A6CC36] [8CFE8EDF]
12 99,9 [22B8C3C1] [69EB82D5]


Scorpions - Pure Instinct (1996) [Japanese edition]

All thanks go to mewzik

Scorpions or Scorpions in my Blog

Download Scorpions - Pure Instinct (1996):