Tags
Language
Tags
April 2024
Su Mo Tu We Th Fr Sa
31 1 2 3 4 5 6
7 8 9 10 11 12 13
14 15 16 17 18 19 20
21 22 23 24 25 26 27
28 29 30 1 2 3 4

Scorpions - 3 Studio Albums (1976-1984) [Audio Fidelity, 2012-2014] (Re-up)

Posted By: gribovar
Scorpions - 3 Studio Albums (1976-1984) [Audio Fidelity, 2012-2014] (Re-up)

Scorpions - 3 Studio Albums (1976-1984) [Audio Fidelity, 2012-2014]
EAC Rip | FLAC (image+.cue+log) - 750 MB | MP3 CBR 320 kbps (LAME 3.93) - 266 MB | Covers - 101 MB
Genre: Hard Rock | RAR 3% Rec. | Label: Audio Fidelity

Scorpions - Virgin Killer (1976). Virgin Killer is the first of four studio releases that really defined the Scorpions and their highly influential urgent metallic sound. It was released in 1976 and was the first album of the band to attract attention outside Europe. The album was a step in the band's shift from psychedelic music to hard rock. For the first time in the band's career the line-up stayed the same with Klaus Meine on vocals, Uli Jon Roth on lead guitar, Rudolf Schenker on rhythm guitar, Francis Buchholz on bass, and Rudy Lenners on drums. The nine tracks were laid down with Dieter Dierks producing. The band is in top form and churns out some melodic yet blistering heavy rock. Virgin Killer is full of heavy songs and exceptionally, fast, innovative guitar leads by Uli Jon Roth. These songs are infectious and Uli's guitar solo on the Jimi Hendrix inspired "Polar Nights" exhibits the thunder-heavy riffs and grooves that make it a classic.

Scorpions - Blackout (1982). Blackout, their eighth studio album, is Scorpions at their peak… it is the band's 1982 break-through album that made them global superstars. Every song is a gem and this album contains a splendid balance of pop/rock, power ballads and catchy heavy metal. Scorpions dish-out catchy fist-pounding anthems like the top ten hit "No One Like You' then turn around and offer the soul stirring ballad "When the Smoke Is Going Down".
Klaus Meine is a singer who knows how to wring the last ounce of impact from each song. The band sounds great as highlighted by the fast-paced performances of guitarists Rudolf Schenker and Matthias Jabs. Herman Rarebell and Francis Buchholz add a tight and powerful drum and bass bottom.

Scorpions - Love At First Sting (1984). The Scorpions are the largest selling German band in rock history - Klaus Miene, Rudolf Schenker, Matthias Jabs, Francis Bucholz, and Herman Rarebell are legends of the rock genre. Although the Scorpions had already achieved fame after 1982's Blackout, Love at First Sting was the first Scorpions album to please the overall radio world and brought them their biggest single of the decade. It is from this record that most of the group’s hits originate, and the tracklist reads like a greatest hits collection. Love at First Sting is the ninth studio album by the band, it peaked at number 6 on the Billboard 200 chart in 1984 and went triple platinum.
The album features an equal balance of heavier tracks, catchy metal driven by memorable riffs, and power ballads. "Rock You Like A Hurricane" is one of their biggest hits and remains their signature song. The tune reached number 25 on the Billboard Hot 100 chart, number 14 in Germany, number 2 in the French and Swiss Top 50. The ballad "Still Loving You" reached number 64 on the same US chart and is one of the best of the metal era and showcases pretty passionate soloing from lead guitarist Matthias Jabs. Tracks like "Big City Nights," "Bad Boys Running Wild," and "I'm Leaving You" are all very strong, featuring excellent melodies penned by rhythm guitarist Rudolf Schenker. The acoustic turned heavy rocker "Coming Home" is one of the strongest tracks and was the opening song for many of their live shows.

Scorpions - 3 Studio Albums (1976-1984) [Audio Fidelity, 2012-2014] (Re-up)

Scorpions - Virgin Killer (1976) [Audio Fidelity, 24 KT + Gold CD, 2012]
EAC Rip | FLAC (image+.cue+log) - 234 MB | MP3 CBR 320 kbps (LAME 3.93) - 83 MB | Covers - 29 MB
Genre: Hard Rock | RAR 3% Rec. | Label: Audio Fidelity (AFZ 134)

Tracklist:
01. Pictured Life
02. Catch Your Train
03. In Your Park
04. Backstage Queen
05. Virgin Killer
06. Hell-Cat
07. Crying Days
08. Polar Nights
09. Yellow Raven

Total time: 35:31

Exact Audio Copy V1.0 beta 3 from 29. August 2011

Отчёт EAC об извлечении, выполненном 24. октября 2014, 21:10

Scorpions / Virgin Killer (AFZ 134)

Дисковод: PIONEER DVD-RW DVR-220L Adapter: 0 ID: 0

Режим чтения : Достоверность
Использование точного потока : Да
Отключение кэша аудио : Да
Использование указателей C2 : Нет

Коррекция смещения при чтении : 6
Способность читать области Lead-in и Lead-out : Нет
Заполнение пропущенных сэмплов тишиной : Да
Удаление блоков с тишиной в начале и конце : Нет
При вычислениях CRC использовались нулевые сэмплы : Да
Интерфейс : Встроенный Win32-интерфейс для Win NT/2000

Выходной формат : Внутренние WAV-операции
Формат сэмплов : 44.100 Гц; 16 бит; стерео


TOC извлечённого CD

Трек | Старт | Длительность | Начальный сектор | Конечный сектор
––––––––––––––––––––––––––––––––––-
1 | 0:00.00 | 3:26.26 | 0 | 15475
2 | 3:26.26 | 3:36.23 | 15476 | 31698
3 | 7:02.49 | 3:46.35 | 31699 | 48683
4 | 10:49.09 | 3:12.68 | 48684 | 63151
5 | 14:02.02 | 3:44.07 | 63152 | 79958
6 | 17:46.09 | 2:57.31 | 79959 | 93264
7 | 20:43.40 | 4:38.60 | 93265 | 114174
8 | 25:22.25 | 5:07.13 | 114175 | 137212
9 | 30:29.38 | 5:01.40 | 137213 | 159827


Характеристики диапазона извлечения и сообщения об ошибках

Выбранный диапазон

Имя файла D:\Scorpions Collection by mewzik (2)\1976 - Virgin Killer (AFZ 134)\1976 - Virgin Killer (AFZ 134).wav

Пиковый уровень 100.0 %
Скорость извлечения 6.6 X
Качество диапазона 100.0 %
CRC теста 9434240E
CRC копии 9434240E
Копирование… OK

Ошибок не произошло


AccurateRip: сводка

Трек 1 : извлечено точно (доверие 20) [4F7904A2] (AR v2)
Трек 2 : извлечено точно (доверие 20) [438EFFAF] (AR v2)
Трек 3 : извлечено точно (доверие 20) [8AEB1D6C] (AR v2)
Трек 4 : извлечено точно (доверие 20) [59065BDF] (AR v2)
Трек 5 : извлечено точно (доверие 20) [76B9B8F6] (AR v2)
Трек 6 : извлечено точно (доверие 20) [0EB899CC] (AR v2)
Трек 7 : извлечено точно (доверие 20) [F8D12BDB] (AR v2)
Трек 8 : извлечено точно (доверие 20) [85432470] (AR v2)
Трек 9 : извлечено точно (доверие 20) [02FF53C2] (AR v2)

Все треки извлечены точно

Конец отчёта

[CUETools log; Date: 21.10.2021 18:01:12; Version: 2.1.4]
HDCD: peak extend: none, transient filter: some, gain: none
[CTDB TOCID: NTATNv547mzvaS518dfddO9W8rQ-] found.
Track | CTDB Status
1 | (37/38) Accurately ripped
2 | (37/38) Accurately ripped
3 | (37/38) Accurately ripped
4 | (37/38) Accurately ripped
5 | (37/38) Accurately ripped
6 | (37/38) Accurately ripped
7 | (37/38) Accurately ripped
8 | (37/38) Accurately ripped
9 | (37/38) Accurately ripped
[AccurateRip ID: 000b581b-005429e8-66085309] found.
Track [ CRC | V2 ] Status
01 [3af52651|4f7904a2] (00+41/41) Accurately ripped
02 [a26fe373|438effaf] (00+42/42) Accurately ripped
03 [80036ca0|8aeb1d6c] (00+42/42) Accurately ripped
04 [21327b8e|59065bdf] (00+42/42) Accurately ripped
05 [175ec0c2|76b9b8f6] (00+42/42) Accurately ripped
06 [20462591|0eb899cc] (00+42/42) Accurately ripped
07 [fb82f071|f8d12bdb] (00+42/42) Accurately ripped
08 [82c70cf3|85432470] (00+42/42) Accurately ripped
09 [68e65080|02ff53c2] (00+41/41) Accurately ripped

Track Peak [ CRC32 ] [W/O NULL] [ LOG ]
– 100,0 [9434240E] [3F297BA1] CRC32
01 95,0 [155FEF48] [53A80CC4]
02 100,0 [5897A75E] [49F2BF83]
03 89,3 [C0E5597C] [1164B27D]
04 90,9 [5BB50E42] [F298EA78]
05 88,2 [A1EF6DE4] [0C7A22F8]
06 96,9 [D4FFF428] [1D1F4CCC]
07 85,8 [4DCDDC96] [65322EAA]
08 93,6 [B7B3E3DB] [665543D5]
09 89,7 [AC240686] [FB483BA7]

Scorpions - 3 Studio Albums (1976-1984) [Audio Fidelity, 2012-2014] (Re-up)

Scorpions - Blackout (1982) [Audio Fidelity, Hybrid SACD, 2014]
EAC Rip | FLAC (image+.cue+log) - 245 MB | MP3 CBR 320 kbps (LAME 3.93) - 86 MB | Covers - 42 MB
Genre: Hard Rock | RAR 3% Rec. | Label: Audio Fidelity (AFZ 164), CD Layer Only

Tracklist:
01. Blackout
02. Can't Live Without You
03. No One Like You
04. You Give Me All I Need
05. Now!
06. Dynamite
07. Arizona
08. China White
09. When The Smoke Is Going Down

Total time: 36:45

Exact Audio Copy V1.0 beta 3 from 29. August 2011

EAC extraction logfile from 4. February 2015, 16:26

Scorpions / Blackout (Limited Numbered Edition)

Used drive : HP DVD Writer 1170d Adapter: 0 ID: 0

Read mode : Secure
Utilize accurate stream : Yes
Defeat audio cache : Yes
Make use of C2 pointers : No

Read offset correction : 6
Overread into Lead-In and Lead-Out : No
Fill up missing offset samples with silence : Yes
Delete leading and trailing silent blocks : No
Null samples used in CRC calculations : Yes
Used interface : Native Win32 interface for Win NT & 2000

Used output format : User Defined Encoder
Selected bitrate : 768 kBit/s
Quality : High
Add ID3 tag : No
Command line compressor : C:\Program Files (x86)\Exact Audio Copy\FLAC\FLAC.EXE
Additional command line options : -V -8 -T "Date=%year%" -T "Genre=%genre%" -T"COMMENT=Ripped by Ungern666" -8 -V %source%


TOC of the extracted CD

Track | Start | Length | Start sector | End sector
––––––––––––––––––––––––––––-
1 | 0:00.17 | 3:48.71 | 17 | 17187
2 | 3:49.13 | 3:46.48 | 17188 | 34185
3 | 7:35.61 | 3:56.65 | 34186 | 51950
4 | 11:32.51 | 3:38.29 | 51951 | 68329
5 | 15:11.05 | 2:33.41 | 68330 | 79845
6 | 17:44.46 | 4:12.15 | 79846 | 98760
7 | 21:56.61 | 3:55.25 | 98761 | 116410
8 | 25:52.11 | 6:58.08 | 116411 | 147768
9 | 32:50.19 | 3:55.01 | 147769 | 165394


Range status and errors

Selected range

Filename C:\EAC\Ungern666\Scorpions - Blackout (Limited Numbered Edition).wav

Peak level 100.0 %
Extraction speed 7.2 X
Range quality 100.0 %
Test CRC 747A4652
Copy CRC 747A4652
Copy OK

No errors occurred


AccurateRip summary

Track 1 accurately ripped (confidence 15) [5866452B] (AR v2)
Track 2 accurately ripped (confidence 15) [FCC2F51A] (AR v2)
Track 3 accurately ripped (confidence 15) [DB858480] (AR v2)
Track 4 accurately ripped (confidence 15) [7C378D8D] (AR v2)
Track 5 accurately ripped (confidence 15) [B2246681] (AR v2)
Track 6 accurately ripped (confidence 15) [CCDA9559] (AR v2)
Track 7 accurately ripped (confidence 15) [98105A08] (AR v2)
Track 8 accurately ripped (confidence 15) [DD001982] (AR v2)
Track 9 accurately ripped (confidence 15) [ACC43F5D] (AR v2)

All tracks accurately ripped

End of status report

==== Log checksum 10E94DDCF981951A4DB70BD67632ED18ABFACF311C9412F1029A73757110A485 ====

[CUETools log; Date: 21.10.2021 18:01:40; Version: 2.1.4]
Pregap length 00:00:17.
[CTDB TOCID: FJ6OYSMd7Gt6IQ5bMC.DVkqxg8c-] found.
Track | CTDB Status
1 | (39/40) Accurately ripped
2 | (39/40) Accurately ripped
3 | (40/40) Accurately ripped
4 | (40/40) Accurately ripped
5 | (40/40) Accurately ripped
6 | (40/40) Accurately ripped
7 | (39/40) Accurately ripped
8 | (40/40) Accurately ripped
9 | (39/40) Accurately ripped
[AccurateRip ID: 000be64e-005812bf-74089d09] found.
Track [ CRC | V2 ] Status
01 [bd54444d|5866452b] (00+44/44) Accurately ripped
02 [1389dcd2|fcc2f51a] (00+45/45) Accurately ripped
03 [93979f4b|db858480] (00+46/46) Accurately ripped
04 [af1b10c4|7c378d8d] (00+44/44) Accurately ripped
05 [4e8870ba|b2246681] (00+45/45) Accurately ripped
06 [c09a3b85|ccda9559] (00+44/44) Accurately ripped
07 [6c9247e5|98105a08] (00+45/45) Accurately ripped
08 [7e0b3f1c|dd001982] (00+45/45) Accurately ripped
09 [6eebf649|acc43f5d] (00+45/45) Accurately ripped

Track Peak [ CRC32 ] [W/O NULL] [ LOG ]
– 100,0 [747A4652] [14339A26] CRC32
01 94,7 [BED46C01] [DD557351]
02 85,5 [304914CA] [D3D24847]
03 100,0 [E8995F52] [A5580E34]
04 89,8 [5CC29EEC] [1115198C]
05 87,7 [D207633F] [C4E6AA40]
06 90,2 [F5820F0F] [19DF749E]
07 89,4 [5C7857F6] [7F798128]
08 99,3 [3BC4F961] [436BB2E7]
09 96,3 [FA1639CB] [CA329F97]

Scorpions - 3 Studio Albums (1976-1984) [Audio Fidelity, 2012-2014] (Re-up)

Scorpions - Love At First Sting (1984) [Audio Fidelity, 24 KT + Gold CD, 2012]
EAC Rip | FLAC (image+.cue+log) - 271 MB | MP3 CBR 320 kbps (LAME 3.93) - 97 MB | Covers - 30 MB
Genre: Hard Rock | RAR 3% Rec. | Label: Audio Fidelity (AFZ 143)

Tracklist:
01. Bad Boys Running Wild
02. Rock You Like A Hurricane
03. I'm Leaving You
04. Coming Home
05. The Same Thrill
06. Big City Nights
07. As Soon As The Good Times Roll
08. Crossfire
09. Still Loving You

Total time: 41:14

Exact Audio Copy V1.0 beta 3 from 29. August 2011

Отчёт EAC об извлечении, выполненном 24. октября 2014, 21:38

Scorpions / Love At First Sting (AFZ 143)

Дисковод: PIONEER DVD-RW DVR-220L Adapter: 0 ID: 0

Режим чтения : Достоверность
Использование точного потока : Да
Отключение кэша аудио : Да
Использование указателей C2 : Нет

Коррекция смещения при чтении : 6
Способность читать области Lead-in и Lead-out : Нет
Заполнение пропущенных сэмплов тишиной : Да
Удаление блоков с тишиной в начале и конце : Нет
При вычислениях CRC использовались нулевые сэмплы : Да
Интерфейс : Встроенный Win32-интерфейс для Win NT/2000

Выходной формат : Внутренние WAV-операции
Формат сэмплов : 44.100 Гц; 16 бит; стерео


TOC извлечённого CD

Трек | Старт | Длительность | Начальный сектор | Конечный сектор
––––––––––––––––––––––––––––––––––-
1 | 0:00.00 | 3:56.23 | 0 | 17722
2 | 3:56.23 | 4:12.37 | 17723 | 36659
3 | 8:08.60 | 4:17.59 | 36660 | 55993
4 | 12:26.44 | 4:59.35 | 55994 | 78453
5 | 17:26.04 | 3:31.59 | 78454 | 94337
6 | 20:57.63 | 4:09.23 | 94338 | 113035
7 | 25:07.11 | 5:02.65 | 113036 | 135750
8 | 30:10.01 | 4:36.42 | 135751 | 156492
9 | 34:46.43 | 6:27.66 | 156493 | 185583


Характеристики диапазона извлечения и сообщения об ошибках

Выбранный диапазон

Имя файла D:\Scorpions Collection by mewzik (2)\1984 - Love At First Sting (AFZ 143)\1984 - Love At First Sting (AFZ 143).wav

Пиковый уровень 100.0 %
Скорость извлечения 4.1 X
Качество диапазона 100.0 %
CRC теста AC3EF3AB
CRC копии AC3EF3AB
Копирование… OK

Ошибок не произошло


AccurateRip: сводка

Трек 1 : извлечено точно (доверие 24) [82B22B8E] (AR v2)
Трек 2 : извлечено точно (доверие 24) [E3E1C823] (AR v2)
Трек 3 : извлечено точно (доверие 24) [525458BF] (AR v2)
Трек 4 : извлечено точно (доверие 24) [FABDDE6D] (AR v2)
Трек 5 : извлечено точно (доверие 24) [AC1C00E0] (AR v2)
Трек 6 : извлечено точно (доверие 24) [3DB0D41C] (AR v2)
Трек 7 : извлечено точно (доверие 24) [A5A70AC1] (AR v2)
Трек 8 : извлечено точно (доверие 24) [A6387290] (AR v2)
Трек 9 : извлечено точно (доверие 25) [5A11E19C] (AR v2)

Все треки извлечены точно

Конец отчёта

[CUETools log; Date: 21.10.2021 18:02:01; Version: 2.1.4]
HDCD: peak extend: none, transient filter: none, gain: none
[CTDB TOCID: v3tKUkN7hGUIdbK_11MVX375Bpk-] found.
Track | CTDB Status
1 | (68/68) Accurately ripped
2 | (68/68) Accurately ripped
3 | (68/68) Accurately ripped
4 | (68/68) Accurately ripped
5 | (68/68) Accurately ripped
6 | (68/68) Accurately ripped
7 | (68/68) Accurately ripped
8 | (67/68) Accurately ripped
9 | (68/68) Accurately ripped
[AccurateRip ID: 000d5631-0062b676-7a09aa09] found.
Track [ CRC | V2 ] Status
01 [b0f97d12|82b22b8e] (04+63/67) Accurately ripped
02 [4f42f2e4|e3e1c823] (04+62/66) Accurately ripped
03 [07be6522|525458bf] (04+62/66) Accurately ripped
04 [f1ef189c|fabdde6d] (04+62/66) Accurately ripped
05 [0659bcb2|ac1c00e0] (04+62/66) Accurately ripped
06 [9fa220d8|3db0d41c] (04+62/66) Accurately ripped
07 [4ca26e62|a5a70ac1] (04+62/66) Accurately ripped
08 [cf8abeed|a6387290] (04+62/66) Accurately ripped
09 [5c5c1261|5a11e19c] (04+63/67) Accurately ripped

Track Peak [ CRC32 ] [W/O NULL] [ LOG ]
– 100,0 [AC3EF3AB] [CAF21308] CRC32
01 100,0 [7771949F] [162B686A]
02 100,0 [9795BE7B] [8569DA1F]
03 100,0 [1EEB02F2] [2B6CF1D6]
04 93,4 [25FE6AE1] [DD0CFA9E]
05 100,0 [F12BF29C] [6FBE488A]
06 98,9 [B7CF04DA] [6E488C4B]
07 100,0 [C945CCB8] [9001C997]
08 93,1 [99B2AD66] [146D78F8]
09 100,0 [EBA40502] [9A19B7CB]

Thanks to mewzik & ungern666