Subcategories

Cyril Scott - Complete Piano Music, Vol. 4

Posted By: tapaz9
Cyril Scott - Complete Piano Music, Vol. 4

Cyril Scott - Complete Piano Music, Vol. 4
Classical | EAC: FLAC+Cue+Log | 2 Cd, Covers | 656 Mb
Label: Dutton - Date: 2007

Leslie De'Ath has taken up the banner for the music of Cyril Scott, which many feel is long overdue for unfurling again, with a series on Dutton of his piano music. It is easy to hear in the pieces on this first volume why Scott was called "The English Debussy." The extremely colorful, translucent harmonies he uses make his music entrancing, sometimes mystical.

Thanks to Dokter123 for allowing me to post this one.

Tracks CD 1:

01. Chinese Serenade, Op.39-2 [0:04:37.73]
02. Dagobah, Op.39-1 [0:04:08.11]
03. Summerland, for piano, Op. 54 (W 361) - Playtime [0:01:22.09]
04. Summerland, for piano, Op. 54 (W 361) - A Song From the East [0:01:42.19]
05. Summerland, for piano, Op. 54 (W 361) - Evening Idyll [0:02:09.55]
06. Summerland, for piano, Op. 54 (W 361) - Fairy Folk [0:01:35.62]
07. Asphodel, Op.50-2 [0:03:09.39]
08. Serenata, Op.67-2 [0:03:08.68]
09. Intermezzo, Op.67-3 [0:02:29.00]
10. Frivolous Pieces (3) for piano (W 124) - Allegretto Grazioso [0:03:08.02]
11. Frivolous Pieces (3) for piano (W 124) - Andante Pastorale [0:03:00.22]
12. Frivolous Pieces (3) for piano (W 124) - Valse Scherzando [0:02:23.50]
13. Pieces (6) for piano, Op. 4 (W 248) - Valse [0:01:22.68]
14. Pieces (6) for piano, Op. 4 (W 248) - Adagio Serioso [0:02:45.30]
15. Pieces (6) for piano, Op. 4 (W 248) - Etude [0:02:32.65]
16. Pieces (6) for piano, Op. 4 (W 248) - Folk-song [0:01:39.24]
17. Pieces (6) for piano, Op. 4 (W 248) - Scherzino [0:01:12.30]
18. Pieces (6) for piano, Op. 4 (W 248) - Andante Maestoso [0:02:00.12]
19. Sketches (2) for piano, Op. 57-4-5 (W 322) - Cukoo-call [0:02:00.71]
20. Sketches (2) for piano, Op. 57-4-5 (W 322) - Twilight Bells [0:01:58.44]
21. Suite for piano ("In the Old Style"), Op. 71-1 (W 354) - Prelude [0:03:58.29]
22. Suite for piano ("In the Old Style"), Op. 71-1 (W 354) - Sarabande [0:04:22.53]
23. Suite for piano ("In the Old Style"), Op. 71-1 (W 354) - Minuet [0:04:05.44]
24. Danses Tristes (3) for piano, Op. 74 (W 92) - Danse Elegiaque [0:04:22.71]
25. Danses Tristes (3) for piano, Op. 74 (W 92) - Danse Orientale [0:04:27.26]
26. Danses Tristes (3) for piano, Op. 74 (W 92) - Danse Langoureuse [0:03:35.18]
27. Scherzo, Op.25 [0:03:42.32]

Tracks CD 2:

01. Rondeau De Concert [0:05:29.45]
02. Consolation [0:03:51.01]
03. Irish Reel [0:02:13.45]
04. Chansonette, Op.74-8 [0:02:33.27]
05. Impressions from The Jungle Book, for piano (W 149) - The Jungle [0:03:33.37]
06. Impressions from The Jungle Book, for piano (W 149) - Dawn [0:02:25.45]
07. Impressions from The Jungle Book, for piano (W 149) - Rikki-Tikki-Tavi And the Snake [0:04:03.13]
08. Impressions from The Jungle Book, for piano (W 149) - Morning Song In the Jungle [0:02:38.63]
09. Impressions from The Jungle Book, for piano (W 149) - Dance Of the Elephants [0:02:34.42]
10. Over the Prairie, for piano (W 233) - Andante [0:02:58.52]
11. Over the Prairie, for piano (W 233) - Allegretto [0:01:51.57]
12. Pictoral Sketch [0:03:40.31]
13. Butterfly Waltz [0:02:59.60]
14. Danse Romantique [0:02:49.26]
15. A Little Russian Suite, for piano (W 176) - Russian Air [0:02:30.38]
16. A Little Russian Suite, for piano (W 176) - Siberian Waltz [0:01:57.51]
17. A Little Russian Suite, for piano (W 176) - Dance [0:01:31.54]
18. Old China (Vieux chine), suite for piano (W 403) - Old World Gavotte (Gavotte Du Bon Vieux Temps) [0:01:14.68]
19. Old China (Vieux chine), suite for piano (W 403) - Old World Minuet (Menuet Du Bon Vieux Temps) [0:01:38.67]
20. Old China (Vieux chine), suite for piano (W 403) - Angelus [0:02:02.23]
21. Old China (Vieux chine), suite for piano (W 403) - Willow Pattern: A Little Study In Fourths (Decor De Saules: Petite Etude En Quartes) [0:01:30.36]
22. Spanish Dance [0:03:49.32]
23. Berceuse [0:03:22.20]
24. Badinage [0:03:44.28]
25. Guttersnipes' Dance [0:01:46.10]
26. Gavotte [0:02:32.59]
27. Victorian Waltz [0:03:05.71]


Exact Audio Copy V1.0 beta 3 from 29. August 2011

EAC extraction logfile from 3. October 2012, 23:02

Cyril Scott / Complete Piano Music, Vol. 4 - CD 1

Used drive : TSSTcorpCDDVDW SH-S223C Adapter: 2 ID: 1

Read mode : Secure
Utilize accurate stream : Yes
Defeat audio cache : Yes
Make use of C2 pointers : No

Read offset correction : 697
Overread into Lead-In and Lead-Out : No
Fill up missing offset samples with silence : Yes
Delete leading and trailing silent blocks : No
Null samples used in CRC calculations : Yes
Used interface : Native Win32 interface for Win NT & 2000

Used output format : User Defined Encoder
Selected bitrate : 896 kBit/s
Quality : High
Add ID3 tag : No
Command line compressor : C:\Program Files (x86)\Exact Audio Copy\FLAC\FLAC.EXE
Additional command line options : -V -0 -T "COMMENT=Ripped by Tapaz9" -T "artist=%artist%" -T "title=%title%" -T "album=%albumtitle%" -T "date=%year%" -T "tracknumber=%tracknr%" -T "genre=%genre%" %source%


TOC of the extracted CD

Track | Start | Length | Start sector | End sector
––––––––––––––––––––––––––––-
1 | 0:00.00 | 4:37.73 | 0 | 20847
2 | 4:37.73 | 4:08.11 | 20848 | 39458
3 | 8:46.09 | 1:22.09 | 39459 | 45617
4 | 10:08.18 | 1:42.19 | 45618 | 53286
5 | 11:50.37 | 2:09.55 | 53287 | 63016
6 | 14:00.17 | 1:35.62 | 63017 | 70203
7 | 15:36.04 | 3:09.39 | 70204 | 84417
8 | 18:45.43 | 3:08.68 | 84418 | 98585
9 | 21:54.36 | 2:29.00 | 98586 | 109760
10 | 24:23.36 | 3:08.02 | 109761 | 123862
11 | 27:31.38 | 3:00.22 | 123863 | 137384
12 | 30:31.60 | 2:23.50 | 137385 | 148159
13 | 32:55.35 | 1:22.68 | 148160 | 154377
14 | 34:18.28 | 2:45.30 | 154378 | 166782
15 | 37:03.58 | 2:32.65 | 166783 | 178247
16 | 39:36.48 | 1:39.24 | 178248 | 185696
17 | 41:15.72 | 1:12.30 | 185697 | 191126
18 | 42:28.27 | 2:00.12 | 191127 | 200138
19 | 44:28.39 | 2:00.71 | 200139 | 209209
20 | 46:29.35 | 1:58.44 | 209210 | 218103
21 | 48:28.04 | 3:58.29 | 218104 | 235982
22 | 52:26.33 | 4:22.53 | 235983 | 255685
23 | 56:49.11 | 4:05.44 | 255686 | 274104
24 | 60:54.55 | 4:22.71 | 274105 | 293825
25 | 65:17.51 | 4:27.26 | 293826 | 313876
26 | 69:45.02 | 3:35.18 | 313877 | 330019
27 | 73:20.20 | 3:42.32 | 330020 | 346701


Range status and errors

Selected range

Filename F:\Musique\Scott, Cyril\Scott_CompletePiano MusicVol4\CD 1\Cyril Scott - Complete Piano Music, Vol. 4 - CD 1.wav

Peak level 98.0 %
Extraction speed 14.5 X
Range quality 100.0 %
Copy CRC 6FA629A8
Copy OK

No errors occurred

End of status report

==== Log checksum 3E350CA7556F91DCFFDE90C65A1E4C50480998141AB703B2198D4DB53F3CC4CF ====



Exact Audio Copy V1.0 beta 3 from 29. August 2011

EAC extraction logfile from 3. October 2012, 23:18

Cyril Scott / Complete Piano Music, Vol. 4 - CD 2

Used drive : TSSTcorpCDDVDW SH-S223C Adapter: 2 ID: 1

Read mode : Secure
Utilize accurate stream : Yes
Defeat audio cache : Yes
Make use of C2 pointers : No

Read offset correction : 697
Overread into Lead-In and Lead-Out : No
Fill up missing offset samples with silence : Yes
Delete leading and trailing silent blocks : No
Null samples used in CRC calculations : Yes
Used interface : Native Win32 interface for Win NT & 2000

Used output format : User Defined Encoder
Selected bitrate : 896 kBit/s
Quality : High
Add ID3 tag : No
Command line compressor : C:\Program Files (x86)\Exact Audio Copy\FLAC\FLAC.EXE
Additional command line options : -V -0 -T "COMMENT=Ripped by Tapaz9" -T "artist=%artist%" -T "title=%title%" -T "album=%albumtitle%" -T "date=%year%" -T "tracknumber=%tracknr%" -T "genre=%genre%" %source%


TOC of the extracted CD

Track | Start | Length | Start sector | End sector
––––––––––––––––––––––––––––-
1 | 0:00.00 | 5:29.45 | 0 | 24719
2 | 5:29.45 | 3:51.01 | 24720 | 42045
3 | 9:20.46 | 2:13.45 | 42046 | 52065
4 | 11:34.16 | 2:33.27 | 52066 | 63567
5 | 14:07.43 | 3:33.37 | 63568 | 79579
6 | 17:41.05 | 2:25.45 | 79580 | 90499
7 | 20:06.50 | 4:03.13 | 90500 | 108737
8 | 24:09.63 | 2:38.63 | 108738 | 120650
9 | 26:48.51 | 2:34.42 | 120651 | 132242
10 | 29:23.18 | 2:58.52 | 132243 | 145644
11 | 32:21.70 | 1:51.57 | 145645 | 154026
12 | 34:13.52 | 3:40.31 | 154027 | 170557
13 | 37:54.08 | 2:59.60 | 170558 | 184042
14 | 40:53.68 | 2:49.26 | 184043 | 196743
15 | 43:43.19 | 2:30.38 | 196744 | 208031
16 | 46:13.57 | 1:57.51 | 208032 | 216857
17 | 48:11.33 | 1:31.54 | 216858 | 223736
18 | 49:43.12 | 1:14.68 | 223737 | 229354
19 | 50:58.05 | 1:38.67 | 229355 | 236771
20 | 52:36.72 | 2:02.23 | 236772 | 245944
21 | 54:39.20 | 1:30.36 | 245945 | 252730
22 | 56:09.56 | 3:49.32 | 252731 | 269937
23 | 59:59.13 | 3:22.20 | 269938 | 285107
24 | 63:21.33 | 3:44.28 | 285108 | 301935
25 | 67:05.61 | 1:46.10 | 301936 | 309895
26 | 68:51.71 | 2:32.59 | 309896 | 321354
27 | 71:24.55 | 3:05.71 | 321355 | 335300


Range status and errors

Selected range

Filename F:\Musique\Scott, Cyril\Scott_CompletePiano MusicVol4\CD 2\Cyril Scott - Complete Piano Music, Vol. 4 - CD 2.wav

Peak level 97.3 %
Extraction speed 14.6 X
Range quality 100.0 %
Copy CRC 3D7EED76
Copy OK

No errors occurred

End of status report

==== Log checksum D6019856146A7E75CEEDB0D024B43F5060378CBE85D967781D8A9FF68D08D947 ====

Check out my other classical music posts at My Avax blog

No Mirrors and Torrent-uploads please