Subcategories

Scriabin: Piano Works - Olli Mustonen (2012)

Posted By: peotuvave
Scriabin: Piano Works - Olli Mustonen (2012)

Scriabin: Piano Works - Olli Mustonen (2012)
EAC Rip | Flac (Image + cue + log) | 1 CD | Full Scans | 207 MB
Genre: Classical | Label: Ondine | Catalog Number: 1184

This CD features the acclaimed Finnish pianist Olli Mustonen with piano works by Alexander Scriabin, which have become his signature pieces in recital. The virtuoso sets of Etudes and Preludes cover a wide range of late-Romantic expressions, from heroic to religious, ecstatic to melancholic. The Sonata No. 10 is regarded as one of Scriabin’s greatest works. The collection culminates with the pianistic tour-de-force of Vers la flamme, an astonishing piece famously championed by the late Vladimir Horowitz.

Olli Mustonen has been hailed by The Sunday Times as, “a living dream of pianism, having broken through an expressive barrier that other players do not know exists.”

Composer: Alexander Scriabin
Performer: Olli Mustonen

Reviews: Olli Mustonen has gained many admirers over the years for his fresh conceptions of the standard (and sometimes not-so-standard) repertoire; he has, along the way, found many detractors who feel as strongly that he allows his personality to get in the way of the music too frequently. He often adopts a quick, dry, yet bouncy staccatissmo articulation, which is cited in many reviews of his performances. Interestingly, those descriptions sound pretty close to those of another pianist—Glenn Gould. He, too, was labeled as a certain type of pianist throughout his life, one who was better suited to this music or that. Regardless of one’s opinion of Gould, however, at his best he infused the music that he came to with new life—one such instance being his phenomenal take on Scriabin’s Fifth Piano Sonata. Though the initial sound world of the performer might not match one’s preconception of that of the composer’s, often it is what the performer has to say about the music that counts most.


Mustonen certainly brings out the quirkiness in much of this music, but if there is one composer who can take it, it is Scriabin. The recital begins with the early set of Etudes, op. 8. The pianist brings the requisite amount of energy to pull off the faster, more virtuosic ones (the first one rightly makes one nervous in this performance), though he is equally at home in the more lyrical and mesmerizing (and in his hands highly contrapuntal) slower ones. The 11th etude is not so much sumptuous as intricate and ornamented, while the sixth etude (featuring sixths in the right hand) dances and sparkles, betraying its salon-like qualities. Though this is early Scriabin, this is Scriabin nonetheless. The two sets of preludes that follow consist of rather short (one lasting less than 40 seconds) mood pieces. Mustonen handles them with just as much care as the more demanding etudes; his simple way with them allows their character to shine through. The demanding 10th Piano Sonata follows. Once again, Mustonen seems to feel this piece contrapuntally—the chords that emerge are as though through an x-ray. The sounds never wash together; we are never bathed in their color. Rather, the notes twinkle like individual stars in the night. Vers la flamme rounds out the recital. It is taken much slower than normal (Horowitz’s 5:45 and Richter’s 6:45 to Mustonen’s 8:00). There is, however, ample buildup and an entrancing opening section where time indeed seems to stop. This may not be the normal way to play Scriabin, but it is highly captivating.


Though Mustonen may at first make one question whether he is the right man for this job, the recording itself proves his case: The recital, like the composer’s career, which it mirrors, is a joy from beginning to end. Sound quality is excellent, as is my experience with Ondine. I look forward to whatever repertoire Mustonen takes on next—his insights into the music are, like Gould’s were in the 1960s, intellectually revealing and emotionally satisfying. Highly recommended.

Tracklisting:

1. Vers la flamme, Op. 72 by Alexander Scriabin
Performer: Olli Mustonen (Piano)
Period: 20th Century
Written: 1914; Russia

2. Sonata for Piano no 10, Op. 70 by Alexander Scriabin
Performer: Olli Mustonen (Piano)
Period: 20th Century
Written: 1913; Russia

3. Preludes (6) for Piano, Op. 13 by Alexander Scriabin
Performer: Olli Mustonen (Piano)
Period: 20th Century
Written: 1895; Russia

4. Preludes (5) for Piano, Op. 16 by Alexander Scriabin
Performer: Olli Mustonen (Piano)
Period: 20th Century
Written: 1894-1895; Russia

5. Etudes (12) for Piano, Op. 8 by Alexander Scriabin
Performer: Olli Mustonen (Piano)
Period: 20th Century
Written: 1894; Russia

Exact Audio Copy V1.0 beta 3 from 29. August 2011

EAC extraction logfile from 19. July 2012, 21:03

Olli Mustonen / Scriabin - Works for Piano

Used drive : HL-DT-STDVDRAM GSA-4083N Adapter: 1 ID: 0

Read mode : Secure
Utilize accurate stream : Yes
Defeat audio cache : Yes
Make use of C2 pointers : No

Read offset correction : 667
Overread into Lead-In and Lead-Out : No
Fill up missing offset samples with silence : Yes
Delete leading and trailing silent blocks : No
Null samples used in CRC calculations : Yes
Used interface : Native Win32 interface for Win NT & 2000

Used output format : User Defined Encoder
Selected bitrate : 896 kBit/s
Quality : High
Add ID3 tag : No
Command line compressor : C:\Program Files\Exact Audio Copy\Flac\flac.exe
Additional command line options : -V -8 %source%


TOC of the extracted CD

Track | Start | Length | Start sector | End sector
––––––––––––––––––––––––––––-
1 | 0:00.00 | 1:30.34 | 0 | 6783
2 | 1:30.34 | 2:12.73 | 6784 | 16756
3 | 3:43.32 | 2:01.19 | 16757 | 25850
4 | 5:44.51 | 1:53.08 | 25851 | 34333
5 | 7:37.59 | 2:19.44 | 34334 | 44802
6 | 9:57.28 | 1:38.18 | 44803 | 52170
7 | 11:35.46 | 2:07.24 | 52171 | 61719
8 | 13:42.70 | 3:31.29 | 61720 | 77573
9 | 17:14.24 | 5:07.07 | 77574 | 100605
10 | 22:21.31 | 1:59.55 | 100606 | 109585
11 | 24:21.11 | 3:46.61 | 109586 | 126596
12 | 28:07.72 | 2:43.57 | 126597 | 138878
13 | 30:51.54 | 2:27.38 | 138879 | 149941
14 | 33:19.17 | 0:49.10 | 149942 | 153626
15 | 34:08.27 | 1:25.17 | 153627 | 160018
16 | 35:33.44 | 1:09.61 | 160019 | 165254
17 | 36:43.30 | 1:00.00 | 165255 | 169754
18 | 37:43.30 | 1:24.58 | 169755 | 176112
19 | 39:08.13 | 2:38.20 | 176113 | 187982
20 | 41:46.33 | 1:26.69 | 187983 | 194501
21 | 43:13.27 | 1:53.08 | 194502 | 202984
22 | 45:06.35 | 0:59.31 | 202985 | 207440
23 | 46:05.66 | 0:49.59 | 207441 | 211174
24 | 46:55.50 | 12:44.34 | 211175 | 268508
25 | 59:40.09 | 8:00.39 | 268509 | 304547


Range status and errors

Selected range

Filename J:\Music\Scriabin - Works for Piano\Scriabin - Works for Piano.wav

Peak level 97.7 %
Extraction speed 4.2 X
Range quality 100.0 %
Test CRC CA666E3B
Copy CRC CA666E3B
Copy OK

No errors occurred

End of status report

==== Log checksum 26D01A4EB6E4DD16ED92100ED3873B29E7FF0ACB7C10D4B3969968B7112BD045 ====


Thanks to the original releaser

Download:

Uploaded | Rapidgator