Subcategories
Tags
Language
Tags

Secret Garden - Storyteller (2019)

Posted By: popsakov
Secret Garden - Storyteller (2019)

Secret Garden - Storyteller (2019)
EAC Rip | FLAC (Img) + Cue + Log ~ 313 Mb | MP3 CBR320 ~ 125 Mb
Full Scans ~ 206 Mb | 00:51:56 | RAR 5% Recovery
New Age / Modern Classical / Folk / World
Decca Records / Universal Music #7744955

Known for their lush and atmospheric, largely instrumental music, the Irish/Norwegian duo Secret Garden rose to fame in the mid-'90s and have since won an international following for their gentle but emotionally evocative sounds, dominated by violin and keyboards and combining notes of Celtic and Norwegian folk, pop, and new age styles. The duo first came together to write and perform the song "Nocturne," which became Norway's winning entry in the Eurovision Song Contest. While they would dabble in vocal music on 2007's Inside I'm Singing and pare back their arrangements on 2013's Just the Two of Us, the sizable majority of their releases saw them remaining loyal to their trademark sound, playing music that touched the hearts and soothed the souls of their many fans around the world.

“Storyteller” is the tenth original album from the award-winning Norwegian-Irish act Secret Garden. Differing from the duo’s last studio album ”Just The Two Of Us”, “Storyteller” is a full-scale production with band, top-line instrumentalists from Norway and Ireland, and the world-renowned Czech National Symphony Orchestra, recorded in Prague.

***************

Secret Garden - Storyteller (2019)

Track List:

01. The Pilot [4:04]
02. Beyond The Blue [3:42]
03. Beautiful [3:52]
04. Flow [3:30]
05. Song To A Child [3:34]
06. Nostalgia [4:24]
07. Open Doors [3:21]
08. Sunshine [4:18]
09. One More Chance [3:34]
10. Fantasia [4:40]
11. The Voyage [4:24]
12. Strength [4:14]
13. End Of A Journey [4:18]

Exact Audio Copy V1.0 beta 3 from 29. August 2011

EAC extraction logfile from 18. October 2019, 17:21

Secret Garden / Storyteller

Used drive : PIONEER BD-RW BDR-TD03 Adapter: 0 ID: 1

Read mode : Secure
Utilize accurate stream : Yes
Defeat audio cache : Yes
Make use of C2 pointers : No

Read offset correction : 667
Overread into Lead-In and Lead-Out : No
Fill up missing offset samples with silence : Yes
Delete leading and trailing silent blocks : No
Null samples used in CRC calculations : Yes
Used interface : Native Win32 interface for Win NT & 2000

Used output format : User Defined Encoder
Selected bitrate : 768 kBit/s
Quality : High
Add ID3 tag : No
Command line compressor : C:\Program Files (x86)\Exact Audio Copy\FLAC\FLAC.EXE
Additional command line options : -V -8 -T "Date=%year%" -T "Genre=%genre%" %source%


TOC of the extracted CD

Track | Start | Length | Start sector | End sector
––––––––––––––––––––––––––––-
1 | 0:00.00 | 4:04.36 | 0 | 18335
2 | 4:04.36 | 3:42.04 | 18336 | 34989
3 | 7:46.40 | 3:51.58 | 34990 | 52372
4 | 11:38.23 | 3:29.73 | 52373 | 68120
5 | 15:08.21 | 3:33.62 | 68121 | 84157
6 | 18:42.08 | 4:24.16 | 84158 | 103973
7 | 23:06.24 | 3:20.73 | 103974 | 119046
8 | 26:27.22 | 4:18.06 | 119047 | 138402
9 | 30:45.28 | 3:33.68 | 138403 | 154445
10 | 34:19.21 | 4:40.07 | 154446 | 175452
11 | 38:59.28 | 4:24.34 | 175453 | 195286
12 | 43:23.62 | 4:13.40 | 195287 | 214301
13 | 47:37.27 | 4:18.11 | 214302 | 233662


Range status and errors

Selected range

Filename C:\Users\Deris\Desktop\Sec1Gar9\Secret Garden - Storyteller.wav

Peak level 96.8 %
Extraction speed 1.7 X
Range quality 99.9 %
Test CRC 6C8ECB41
Copy CRC 6C8ECB41
Copy OK

No errors occurred


AccurateRip summary

Track 1 accurately ripped (confidence 2) [4F72BD97] (AR v2)
Track 2 accurately ripped (confidence 2) [A1E17F5B] (AR v2)
Track 3 accurately ripped (confidence 2) [7862E66A] (AR v2)
Track 4 accurately ripped (confidence 2) [094D1A43] (AR v2)
Track 5 accurately ripped (confidence 2) [35E0D844] (AR v2)
Track 6 accurately ripped (confidence 2) [BE34E7F5] (AR v2)
Track 7 accurately ripped (confidence 2) [A5DF08DB] (AR v2)
Track 8 accurately ripped (confidence 2) [EBFA3EC8] (AR v2)
Track 9 accurately ripped (confidence 2) [59529BF3] (AR v2)
Track 10 accurately ripped (confidence 2) [EFE56578] (AR v2)
Track 11 accurately ripped (confidence 2) [72C9DA70] (AR v2)
Track 12 accurately ripped (confidence 2) [07884980] (AR v2)
Track 13 accurately ripped (confidence 2) [A30EB78E] (AR v2)

All tracks accurately ripped

End of status report

–– CUETools DB Plugin V2.1.3

[CTDB TOCID: aE7Kom5gUe8zKTD7Wy9JuWgRD6Y-] found, Submit result: aE7Kom5gUe8zKTD7Wy9JuWgRD6Y- has been confirmed
[32f5c401] (17/18) Accurately ripped
[31772c12] (01/18) No match


==== Log checksum 6605F3ABC3641680D466144E6C9BBEDE82EDA8F3DA9CDF952EBDA61E3A8E1919 ====

[CUETools log; Date: 20.10.2019 10:40:33; Version: 2.1.6]
[CTDB TOCID: aE7Kom5gUe8zKTD7Wy9JuWgRD6Y-] found.
Track | CTDB Status
1 | (19/19) Accurately ripped
2 | (19/19) Accurately ripped
3 | (19/19) Accurately ripped
4 | (19/19) Accurately ripped
5 | (19/19) Accurately ripped
6 | (19/19) Accurately ripped
7 | (19/19) Accurately ripped
8 | (19/19) Accurately ripped
9 | (19/19) Accurately ripped
10 | (19/19) Accurately ripped
11 | (19/19) Accurately ripped
12 | (19/19) Accurately ripped
13 | (18/19) Accurately ripped
[AccurateRip ID: 00184ce9-00f41aa4-b00c2b0d] found.
Track [ CRC | V2 ] Status
01 [4abbd4bf|4f72bd97] (0+2/2) Accurately ripped
02 [7eb476b2|a1e17f5b] (0+2/2) Accurately ripped
03 [22b86eca|7862e66a] (0+2/2) Accurately ripped
04 [769ca8c0|094d1a43] (0+2/2) Accurately ripped
05 [51bb0ac5|35e0d844] (0+2/2) Accurately ripped
06 [edbf90dd|be34e7f5] (0+2/2) Accurately ripped
07 [33b0893a|a5df08db] (0+2/2) Accurately ripped
08 [df3677d9|ebfa3ec8] (0+2/2) Accurately ripped
09 [663c2163|59529bf3] (0+2/2) Accurately ripped
10 [1b1f5394|efe56578] (0+2/2) Accurately ripped
11 [24484313|72c9da70] (0+2/2) Accurately ripped
12 [06e363b8|07884980] (0+2/2) Accurately ripped
13 [8e4a1d07|a30eb78e] (0+2/2) Accurately ripped

Track Peak [ CRC32 ] [W/O NULL] [ LOG ]
– 96,8 [6C8ECB41] [9339D4B5] CRC32
01 95,6 [6548E946] [1516EFA7]
02 95,7 [88AF9B9B] [6F475CB4]
03 95,7 [A854BBB1] [B030C978]
04 96,7 [3D1916EB] [CF3E9BED]
05 95,7 [DABB2498] [15CAED39]
06 95,6 [30554C6F] [542697DC]
07 95,8 [0E6B0A93] [E2057123]
08 95,9 [D619C836] [3DC2A27E]
09 95,8 [D2A90C2C] [A6E0E468]
10 96,8 [D8C9FD4D] [DB6205CC]
11 95,6 [F200FAB2] [8FF296A6]
12 96,8 [7A7D2FF2] [37BB3A2F]
13 95,6 [3209F1E6] [C5BD92DA]

Secret Garden - Storyteller (2019)


All thanks go to Boris1

>>> My Blog <<<

DOWNLOAD: