Tags
Language
Tags

Secret Oyster - Discography [5 Albums] (1973-2007) (Repost)

Posted By: gribovar
Secret Oyster - Discography [5 Albums] (1973-2007) (Repost)

Secret Oyster - Discography [5 Albums] (1973-2007)
EAC Rip | WavPack (image+.cue+log) - 1,55 GB | MP3 CBR 320 kbps (LAME 3.93) - 596 MB | Covers - 106 MB
Genre: Progressive/Jazz Rock | RAR 3% Rec. | Label: The Lazer's Edge, Calibrated

Secret Oyster became somewhat of a super group when members of Burnin Red Ivanhoe, Coronarias Dans and Hurdy Gurdy formed this unit. By the end of Burnin Red Ivanhoe's career (that spawned seven years), Karsten Vogel started forming a new band taking along with him BRI's drummer Thrige and often jazz-partner bassist Vinding with him. Knowing from the Danish circuit guitarist Claus Bohling, he enticed him into the band that took its name from a track from BRI's second album Secret Oysters Service. The last to join was keyboardist Knudsen, who had never played an electric instrument prior to entering this outfit, but was playing in a piano avant-garde trio. Knudsen would prove particularly helpful as the second songwriter of the group and allowing Vogel to leave the keyboards at will to play wind instruments.
Their sound recalled Mahavishnu Orchestra, Nucleus, Herbie Hancock's Mwandishi and Sextant albums as well as Miles Davis' Bitches Brew. Quite a success and this prompted their record company to release that album internationally but under the title "Furtive Pearl". After a line-up change that saw the rhythm section get a complete overhaul (Staer for Vinding and Streenberg for Thrige) their second album, Sea Son, is even better but failed to get international public recognition, even if all connoisseur will mostly agree on this album being the band's apex. At one point the line-up of this group was also exactly the same as Burnin Red Ivanhoe (after it got revived because they also developed rockier material) as well as a third outfit, "Day Of The Phoenix". This did not stop them from writing the music to a ballet "Vidunderlinge Kaelling" released as an album under the name of "Astarte", with very mixed results just a few months before their final album, the much better "Straight From The Krankenhaus" also known as "Orlander".
Aside from their confusion of their album names and general discography, Secret Oyster is a great jazz-rock/fusion outfit that deserved a lot more attention for they were almost as good as the groups named above.
All four original albums have received a thorough and outstanding remastering with added bonus tracks on the great label Laser's Edge. Secret Oyster got back together (Bohling, Vogel and Knudsen plus a new bassist and drummer) during the re-issues of their albums, touring the states and Denmark.

Secret Oyster - Discography [5 Albums] (1973-2007) (Repost)

Secret Oyster - Secret Oyster (1973) [Reissue 2007]
EAC Rip | WavPack (image+.cue+log) - 325 MB | MP3 CBR 320 kbps (LAME 3.93) - 120 MB | Covers - 15 MB
Genre: Progressive/Jazz Rock | RAR 3% Rec. | Label: The Lazer's Edge (LE 1050)

Tracklist:
01. Dampexpressen
02. Fire & Water
03. Vive La Quelle?
04. Blazing Lace
05. Public Oyster
06. Mis(S) Fortune
07. Ova-X
08. Dampexpressen (Live, Bonus track)
09. Orlavær (Bonus track)

Total time: 51:05

Exact Audio Copy V1.0 beta 3 from 29. August 2011

EAC extraction logfile from 8. July 2012, 9:04

Secret Oyster / Secret Oyster

Used drive : HL-DT-STBDDVDRW GBC-H20N Adapter: 1 ID: 0

Read mode : Secure
Utilize accurate stream : Yes
Defeat audio cache : Yes
Make use of C2 pointers : No

Read offset correction : 667
Overread into Lead-In and Lead-Out : No
Fill up missing offset samples with silence : Yes
Delete leading and trailing silent blocks : No
Null samples used in CRC calculations : Yes
Used interface : Native Win32 interface for Win NT & 2000

Used output format : User Defined Encoder
Selected bitrate : 1024 kBit/s
Quality : High
Add ID3 tag : No
Command line compressor : C:\Program Files\Exact Audio Copy\wavpack.exe
Additional command line options : -hm %source% %dest%


TOC of the extracted CD

Track | Start | Length | Start sector | End sector
––––––––––––––––––––––––––––-
1 | 0:00.00 | 4:27.08 | 0 | 20032
2 | 4:27.08 | 5:37.43 | 20033 | 45350
3 | 10:04.51 | 8:52.08 | 45351 | 85258
4 | 18:56.59 | 4:59.03 | 85259 | 107686
5 | 23:55.62 | 10:51.65 | 107687 | 156576
6 | 34:47.52 | 1:32.17 | 156577 | 163493
7 | 36:19.69 | 5:03.23 | 163494 | 186241
8 | 41:23.17 | 7:25.59 | 186242 | 219675
9 | 48:49.01 | 2:16.29 | 219676 | 229904


Range status and errors

Selected range

Filename C:\Users\ProgDog\Music\Secret Oyster - Secret Oyster\Secret Oyster - Secret Oyster.wav

Peak level 99.3 %
Extraction speed 6.0 X
Range quality 99.9 %
Test CRC 18DC939B
Copy CRC 18DC939B
Copy OK

No errors occurred


AccurateRip summary

Track 1 accurately ripped (confidence 8) [F1154C45] (AR v1)
Track 2 accurately ripped (confidence 8) [80A8D689] (AR v1)
Track 3 accurately ripped (confidence 8) [A4ACCE2D] (AR v1)
Track 4 accurately ripped (confidence 8) [F98D4657] (AR v1)
Track 5 accurately ripped (confidence 8) [396DCBDE] (AR v1)
Track 6 accurately ripped (confidence 8) [855E6247] (AR v1)
Track 7 accurately ripped (confidence 8) [FB3C9D05] (AR v1)
Track 8 accurately ripped (confidence 8) [7A9887D3] (AR v1)
Track 9 accurately ripped (confidence 8) [BF7DD198] (AR v1)

All tracks accurately ripped

End of status report

–– CUETools DB Plugin V2.1.3

[CTDB TOCID: 4YzNAyiB5U_LvkOohBDHRb4rLGE-] disk not present in database, Submit result: 4YzNAyiB5U_LvkOohBDHRb4rLGE- has been uploaded


==== Log checksum 05D283B81C6D5321B4324A659915FF472254E466B124983C4BDC80A0463A2AD9 ====

[CUETools log; Date: 19.02.2019 15:01:11; Version: 2.1.4]
[CTDB TOCID: 4YzNAyiB5U_LvkOohBDHRb4rLGE-] found.
Track | CTDB Status
1 | (13/13) Accurately ripped
2 | (13/13) Accurately ripped
3 | (13/13) Accurately ripped
4 | (13/13) Accurately ripped
5 | (13/13) Accurately ripped
6 | (13/13) Accurately ripped
7 | (13/13) Accurately ripped
8 | (13/13) Accurately ripped
9 | (13/13) Accurately ripped
[AccurateRip ID: 00128710-0087e36d-7c0bf909] found.
Track [ CRC | V2 ] Status
01 [f1154c45|889b6f50] (08+11/19) Accurately ripped
02 [80a8d689|07c0adc8] (08+11/19) Accurately ripped
03 [a4acce2d|1e41f9ef] (08+11/19) Accurately ripped
04 [f98d4657|0459c32d] (08+11/19) Accurately ripped
05 [396dcbde|65eb59d7] (08+11/19) Accurately ripped
06 [855e6247|98adbd03] (08+11/19) Accurately ripped
07 [fb3c9d05|2fae8228] (08+11/19) Accurately ripped
08 [7a9887d3|c2282931] (08+10/18) Accurately ripped
09 [bf7dd198|6bc5d6bb] (08+10/18) Accurately ripped

Track Peak [ CRC32 ] [W/O NULL] [ LOG ]
– 99,3 [18DC939B] [37A959DE] CRC32
01 98,9 [C7E4DFE6] [07AC8CA9]
02 98,7 [AB78086C] [5DAA61D5]
03 98,5 [2553E40F] [D80DD4B4]
04 98,7 [A043371D] [FFF7CACB]
05 99,3 [1CD3B620] [23ECB5C8]
06 98,3 [C170F42E] [7AA945DC]
07 98,4 [03803F93] [0709EDED]
08 98,4 [4899BABF] [94E63961]
09 98,3 [C85CE518] [AD599EDD]

Secret Oyster - Discography [5 Albums] (1973-2007) (Repost)

Secret Oyster - Sea Son (1974) [Reissue 2006]
EAC Rip | WavPack (image+.cue+log) - 319 MB | MP3 CBR 320 kbps (LAME 3.93) - 116 MB | Covers - 15 MB
Genre: Progressive/Jazz Rock | RAR 3% Rec. | Label: The Lazer's Edge (LE1045)

Tracklist:
01. Oysterjungle
02. Mind Movie
03. Pajamamafia
04. Black Mist
05. Painforest
06. Paella
07. Sea Son (Bonus track)
08. Alfresco, Part I (Bonus track)
09. Alfresco, Part II (Bonus track)

Total time: 49:24

Exact Audio Copy V1.0 beta 3 from 29. August 2011

EAC extraction logfile from 8. July 2012, 9:54

Secret Oyster / Sea Son

Used drive : HL-DT-STBDDVDRW GBC-H20N Adapter: 1 ID: 0

Read mode : Secure
Utilize accurate stream : Yes
Defeat audio cache : Yes
Make use of C2 pointers : No

Read offset correction : 667
Overread into Lead-In and Lead-Out : No
Fill up missing offset samples with silence : Yes
Delete leading and trailing silent blocks : No
Null samples used in CRC calculations : Yes
Used interface : Native Win32 interface for Win NT & 2000

Used output format : User Defined Encoder
Selected bitrate : 1024 kBit/s
Quality : High
Add ID3 tag : No
Command line compressor : C:\Program Files\Exact Audio Copy\wavpack.exe
Additional command line options : -hm %source% %dest%


TOC of the extracted CD

Track | Start | Length | Start sector | End sector
––––––––––––––––––––––––––––-
1 | 0:00.00 | 3:01.41 | 0 | 13615
2 | 3:01.41 | 9:16.65 | 13616 | 55380
3 | 12:18.31 | 6:12.20 | 55381 | 83300
4 | 18:30.51 | 3:41.71 | 83301 | 99946
5 | 22:12.47 | 5:32.16 | 99947 | 124862
6 | 27:44.63 | 8:27.11 | 124863 | 162898
7 | 36:11.74 | 5:25.49 | 162899 | 187322
8 | 41:37.48 | 5:39.10 | 187323 | 212757
9 | 47:16.58 | 2:07.04 | 212758 | 222286


Range status and errors

Selected range

Filename C:\Users\ProgDog\Music\Secret Oyster - Sea Son\Secret Oyster - Sea Son.wav

Peak level 99.9 %
Extraction speed 5.8 X
Range quality 100.0 %
Test CRC 882B02DA
Copy CRC 882B02DA
Copy OK

No errors occurred


AccurateRip summary

Track 1 accurately ripped (confidence 8) [4464A238] (AR v1)
Track 2 accurately ripped (confidence 8) [58500B72] (AR v1)
Track 3 accurately ripped (confidence 8) [48A8FF7A] (AR v1)
Track 4 accurately ripped (confidence 8) [9A7A81A5] (AR v1)
Track 5 accurately ripped (confidence 7) [34A7F584] (AR v1)
Track 6 accurately ripped (confidence 7) [0EE8255C] (AR v1)
Track 7 accurately ripped (confidence 8) [5B40D82D] (AR v1)
Track 8 accurately ripped (confidence 8) [C5BC80A5] (AR v1)
Track 9 accurately ripped (confidence 8) [17812F8E] (AR v1)

All tracks accurately ripped

End of status report

–– CUETools DB Plugin V2.1.3

[CTDB TOCID: Uy_7OnbaOF75U6GDJzijC13MEeE-] found, Submit result: already submitted
[60048290] (2/2) Accurately ripped


==== Log checksum DE905717C943C4B138DA881A7A0CDA41A7200105CBFE0CC2B3513155A0AED254 ====

[CUETools log; Date: 19.02.2019 15:02:07; Version: 2.1.4]
[CTDB TOCID: Uy_7OnbaOF75U6GDJzijC13MEeE-] found.
Track | CTDB Status
1 | (15/15) Accurately ripped
2 | (14/15) Accurately ripped
3 | (14/15) Accurately ripped
4 | (14/15) Accurately ripped
5 | (14/15) Accurately ripped
6 | (15/15) Accurately ripped
7 | (15/15) Accurately ripped
8 | (15/15) Accurately ripped
9 | (15/15) Accurately ripped
[AccurateRip ID: 0011bc87-00827e7e-760b9309] found.
Track [ CRC | V2 ] Status
01 [4464a238|98a5d20f] (08+10/18) Accurately ripped
02 [58500b72|e64de9c5] (08+10/18) Accurately ripped
03 [48a8ff7a|0e9af797] (08+10/18) Accurately ripped
04 [9a7a81a5|2d84293c] (08+10/18) Accurately ripped
05 [34a7f584|e31b77a4] (07+10/17) Accurately ripped
06 [0ee8255c|4f03d795] (07+10/17) Accurately ripped
07 [5b40d82d|1d979397] (08+10/18) Accurately ripped
08 [c5bc80a5|2234961f] (08+10/18) Accurately ripped
09 [17812f8e|13f2d180] (08+10/18) Accurately ripped

Track Peak [ CRC32 ] [W/O NULL] [ LOG ]
– 99,9 [882B02DA] [107906ED] CRC32
01 99,9 [4AC52372] [23976CDB]
02 99,3 [A15B6303] [D48FDC97]
03 99,6 [1D6DC793] [50B55DDB]
04 99,9 [1313886A] [2F8822A1]
05 99,3 [DF044EED] [CB479F7C]
06 99,8 [120D34CA] [A89C0E5C]
07 99,4 [E75DE904] [FCEFD5A2]
08 99,3 [5E7C9BDE] [01E9EC1F]
09 99,3 [0ACEB0C8] [66E65879]

Secret Oyster - Discography [5 Albums] (1973-2007) (Repost)

Secret Oyster - Vidunderlige Kaelling (1975) [Reissue 2005]
EAC Rip | WavPack (image+.cue+log) - 276 MB | MP3 CBR 320 kbps (LAME 3.93) - 115 MB | Covers - 12 MB
Genre: Progressive/Jazz Rock | RAR 3% Rec. | Label: The Lazer's Edge (LE 1043)

Tracklist:
01. Intro
02. Stjernerne Pе Gaden
03. Sirenerne
04. Astarte
05. Solitude
06. Tango-Bourgoisie
07. Bellevue
08. Valse Du Soir
09. Outro
10. Sleep Music (Bonus track)
11. Circus Sax (Bonus track)
12. Intro To Act II (Bonus track)

Total time: 48:56

Exact Audio Copy V1.0 beta 3 from 29. August 2011

EAC extraction logfile from 8. July 2012, 8:16

Secret Oyster / Vidunderlige kælling

Used drive : HL-DT-STBDDVDRW GBC-H20N Adapter: 1 ID: 0

Read mode : Secure
Utilize accurate stream : Yes
Defeat audio cache : Yes
Make use of C2 pointers : No

Read offset correction : 667
Overread into Lead-In and Lead-Out : No
Fill up missing offset samples with silence : Yes
Delete leading and trailing silent blocks : No
Null samples used in CRC calculations : Yes
Used interface : Native Win32 interface for Win NT & 2000

Used output format : User Defined Encoder
Selected bitrate : 1024 kBit/s
Quality : High
Add ID3 tag : No
Command line compressor : C:\Program Files\Exact Audio Copy\wavpack.exe
Additional command line options : -hm %source% %dest%


TOC of the extracted CD

Track | Start | Length | Start sector | End sector
––––––––––––––––––––––––––––-
1 | 0:00.00 | 2:11.46 | 0 | 9870
2 | 2:11.46 | 5:43.48 | 9871 | 35643
3 | 7:55.19 | 4:58.41 | 35644 | 58034
4 | 12:53.60 | 6:32.52 | 58035 | 87486
5 | 19:26.37 | 4:07.48 | 87487 | 106059
6 | 23:34.10 | 2:43.71 | 106060 | 118355
7 | 26:18.06 | 3:23.29 | 118356 | 133609
8 | 29:41.35 | 1:57.52 | 133610 | 142436
9 | 31:39.12 | 5:09.13 | 142437 | 165624
10 | 36:48.25 | 6:15.44 | 165625 | 193793
11 | 43:03.69 | 5:02.23 | 193794 | 216466
12 | 48:06.17 | 0:49.66 | 216467 | 220207


Range status and errors

Selected range

Filename C:\Users\ProgDog\Music\Secret Oyster - Vidunderlige Kælling\Secret Oyster - Vidunderlige kælling.wav

Peak level 100.0 %
Extraction speed 6.0 X
Range quality 100.0 %
Test CRC 01B66501
Copy CRC 01B66501
Copy OK

No errors occurred


AccurateRip summary

Track 1 accurately ripped (confidence 2) [A3A130A8] (AR v1)
Track 2 accurately ripped (confidence 2) [2BC08070] (AR v1)
Track 3 accurately ripped (confidence 2) [341CE2BF] (AR v1)
Track 4 accurately ripped (confidence 2) [3D7C2923] (AR v1)
Track 5 accurately ripped (confidence 2) [F0F7F9F5] (AR v1)
Track 6 accurately ripped (confidence 2) [9792D0CA] (AR v1)
Track 7 accurately ripped (confidence 2) [752ABEFB] (AR v1)
Track 8 accurately ripped (confidence 2) [FA830E9E] (AR v1)
Track 9 accurately ripped (confidence 2) [C72BBA03] (AR v1)
Track 10 accurately ripped (confidence 2) [374F9738] (AR v1)
Track 11 accurately ripped (confidence 2) [48DF3F59] (AR v1)
Track 12 accurately ripped (confidence 2) [C56AF3A8] (AR v1)

All tracks accurately ripped

End of status report

–– CUETools DB Plugin V2.1.3

[CTDB TOCID: 7s8XTCIVvhBge3xRBP1a3efaqjk-] found, Submit result: 7s8XTCIVvhBge3xRBP1a3efaqjk- has been confirmed
[4a9aca48] (1/2) Accurately ripped
[b12be29d] (1/2) No match


==== Log checksum 7977178DE47DD5262678091D2927A389D904086F52780400B8EEB6EC86F08805 ====

[CUETools log; Date: 19.02.2019 15:02:39; Version: 2.1.4]
[CTDB TOCID: 7s8XTCIVvhBge3xRBP1a3efaqjk-] found.
Track | CTDB Status
1 | (16/17) Accurately ripped
2 | (17/17) Accurately ripped
3 | (17/17) Accurately ripped
4 | (17/17) Accurately ripped
5 | (17/17) Accurately ripped
6 | (17/17) Accurately ripped
7 | (17/17) Accurately ripped
8 | (16/17) Accurately ripped
9 | (17/17) Accurately ripped
10 | (17/17) Accurately ripped
11 | (17/17) Accurately ripped
12 | (17/17) Accurately ripped
[AccurateRip ID: 0016b2ea-00d37d6f-a90b780c] found.
Track [ CRC | V2 ] Status
01 [a3a130a8|aa041c49] (2+4/9) Accurately ripped
02 [2bc08070|16b43393] (2+4/9) Accurately ripped
03 [341ce2bf|463d9b6e] (2+4/9) Accurately ripped
04 [3d7c2923|7c8a533e] (2+4/9) Accurately ripped
05 [f0f7f9f5|a037f2ef] (2+4/9) Accurately ripped
06 [9792d0ca|b69a52a8] (2+4/9) Accurately ripped
07 [752abefb|a1d0f705] (2+4/9) Accurately ripped
08 [fa830e9e|49103356] (2+4/9) Accurately ripped
09 [c72bba03|ce43e96f] (2+4/9) Accurately ripped
10 [374f9738|383cef3e] (2+4/9) Accurately ripped
11 [48df3f59|7b5ae45c] (2+4/9) Accurately ripped
12 [c56af3a8|e671489c] (2+4/9) Accurately ripped
Offsetted by 80:
01 [a8ed86d8] (0/9) No match (V2 was not tested)
02 [7fc020c7] (0/9) No match (V2 was not tested)
03 [4ffbe94d] (0/9) No match (V2 was not tested)
04 [4089ea25] (0/9) No match (V2 was not tested)
05 [8d8a1451] (0/9) No match (V2 was not tested)
06 [676f09c6] (0/9) No match (V2 was not tested)
07 [9ef44b3c] (0/9) No match (V2 was not tested)
08 [0c3261ab] (0/9) No match (V2 was not tested)
09 [0857951f] (0/9) No match (V2 was not tested)
10 [e057254b] (0/9) No match (V2 was not tested)
11 [d47007b1] (0/9) No match (V2 was not tested)
12 [139c9d5e] (0/9) No match (V2 was not tested)

Track Peak [ CRC32 ] [W/O NULL] [ LOG ]
– 99,9 [01B66501] [03D43BCD] CRC32
01 97,8 [442C8CE7] [7D2A9178]
02 56,3 [46F86832] [E383F537]
03 99,9 [09EB5C7F] [84E3AF4C]
04 99,5 [468B9FA1] [BEBDA6CD]
05 74,0 [ED45990A] [DB6CEB13]
06 99,7 [7C3197C9] [96802301]
07 99,6 [AA75B1D5] [29C1B0FF]
08 87,9 [684910AC] [56B61CC6]
09 99,6 [56AA617A] [DEB47FB2]
10 99,4 [0CA02E09] [7919A115]
11 45,4 [011F1C55] [F2BCF308]
12 99,8 [81702AEC] [77395FF7]

Secret Oyster - Discography [5 Albums] (1973-2007) (Repost)

Secret Oyster - Straight to the Krankenhaus (1976) [Reissue 2007]
EAC Rip | WavPack (image+.cue+log) - 267 MB | MP3 CBR 320 kbps (LAME 3.93) - 123 MB | Covers - 14 MB
Genre: Progressive/Jazz Rock | RAR 3% Rec. | Label: The Lazer's Edge (LE 1049)

Tracklist:
01. Lindance
02. Straight To The Krankenhaus
03. My Second Hand Rose
04. High Luminant Silver Patters
05. Delveaux
06. Stalled Angel
07. Rubber Star
08. Traffic & Elephants
09. Leda & The Dog
10. Alfred (Bonus track)
11. Glassprinsen (Glass Prince) (Bonus track)

Total time: 52:34

Exact Audio Copy V1.0 beta 3 from 29. August 2011

EAC extraction logfile from 8. July 2012, 10:17

Secret Oyster / Straight to the Krankenhaus

Used drive : HL-DT-STBDDVDRW GBC-H20N Adapter: 1 ID: 0

Read mode : Secure
Utilize accurate stream : Yes
Defeat audio cache : Yes
Make use of C2 pointers : No

Read offset correction : 667
Overread into Lead-In and Lead-Out : No
Fill up missing offset samples with silence : Yes
Delete leading and trailing silent blocks : No
Null samples used in CRC calculations : Yes
Used interface : Native Win32 interface for Win NT & 2000

Used output format : User Defined Encoder
Selected bitrate : 1024 kBit/s
Quality : High
Add ID3 tag : No
Command line compressor : C:\Program Files\Exact Audio Copy\wavpack.exe
Additional command line options : -hm %source% %dest%


TOC of the extracted CD

Track | Start | Length | Start sector | End sector
––––––––––––––––––––––––––––-
1 | 0:00.00 | 1:14.16 | 0 | 5565
2 | 1:14.16 | 2:49.53 | 5566 | 18293
3 | 4:03.69 | 4:17.59 | 18294 | 37627
4 | 8:21.53 | 5:37.74 | 37628 | 62976
5 | 13:59.52 | 7:57.12 | 62977 | 98763
6 | 21:56.64 | 3:57.13 | 98764 | 116551
7 | 25:54.02 | 4:17.69 | 116552 | 135895
8 | 30:11.71 | 6:11.13 | 135896 | 163733
9 | 36:23.09 | 5:51.30 | 163734 | 190088
10 | 42:14.39 | 3:54.72 | 190089 | 207710
11 | 46:09.36 | 6:24.53 | 207711 | 236563


Range status and errors

Selected range

Filename C:\Users\ProgDog\Music\Secret Oyster - Straight To The Krankenhaus\Secret Oyster - Straight to the Krankenhaus.wav

Peak level 100.0 %
Extraction speed 6.0 X
Range quality 100.0 %
Test CRC 4A9BD986
Copy CRC 4A9BD986
Copy OK

No errors occurred


AccurateRip summary

Track 1 accurately ripped (confidence 2) [EB515194] (AR v1)
Track 2 accurately ripped (confidence 2) [4E9DDE24] (AR v1)
Track 3 accurately ripped (confidence 2) [5E874CCF] (AR v1)
Track 4 accurately ripped (confidence 2) [0FC66316] (AR v1)
Track 5 accurately ripped (confidence 2) [999090DB] (AR v1)
Track 6 accurately ripped (confidence 2) [6AF12C5B] (AR v1)
Track 7 accurately ripped (confidence 2) [E57AA0BA] (AR v1)
Track 8 accurately ripped (confidence 2) [1C3DAF7C] (AR v1)
Track 9 accurately ripped (confidence 2) [FA23621A] (AR v1)
Track 10 accurately ripped (confidence 2) [4F8D337F] (AR v1)
Track 11 accurately ripped (confidence 2) [170C9584] (AR v1)

All tracks accurately ripped

End of status report

–– CUETools DB Plugin V2.1.3

[CTDB TOCID: mNkyPZ4SUtZSWlxSaF1lg5Jl1M8-] found, Submit result: mNkyPZ4SUtZSWlxSaF1lg5Jl1M8- has been confirmed
[f13e34ac] (7/7) Accurately ripped


==== Log checksum BBFE8962D94477A2321392C39096CE4EB61B2735CF7F970580C586A454F38923 ====

[CUETools log; Date: 19.02.2019 15:04:02; Version: 2.1.4]
[CTDB TOCID: mNkyPZ4SUtZSWlxSaF1lg5Jl1M8-] found.
Track | CTDB Status
1 | (16/16) Accurately ripped
2 | (16/16) Accurately ripped
3 | (16/16) Accurately ripped
4 | (16/16) Accurately ripped
5 | (16/16) Accurately ripped
6 | (16/16) Accurately ripped
7 | (16/16) Accurately ripped
8 | (16/16) Accurately ripped
9 | (16/16) Accurately ripped
10 | (16/16) Accurately ripped
11 | (16/16) Accurately ripped
[AccurateRip ID: 00136faf-00afdbf9-8b0c520b] found.
Track [ CRC | V2 ] Status
01 [eb515194|3936c833] (02+06/24) Accurately ripped
02 [4e9dde24|56f6de58] (02+06/24) Accurately ripped
03 [5e874ccf|4e976f4f] (02+06/24) Accurately ripped
04 [0fc66316|2fae0f7d] (02+06/24) Accurately ripped
05 [999090db|4fa1731f] (02+06/23) Accurately ripped
06 [6af12c5b|043025b6] (02+06/24) Accurately ripped
07 [e57aa0ba|b388dd97] (02+06/24) Accurately ripped
08 [1c3daf7c|7e0a4ac2] (02+06/24) Accurately ripped
09 [fa23621a|58c98506] (02+06/23) Accurately ripped
10 [4f8d337f|1a85a36a] (02+06/24) Accurately ripped
11 [170c9584|8bc4dc9a] (02+06/24) Accurately ripped
Offsetted by 30:
01 [e61fa072] (06/24) Accurately ripped
02 [3914b65d] (06/24) Accurately ripped
03 [f8a424a9] (06/24) Accurately ripped
04 [c6677225] (06/24) Accurately ripped
05 [9b9cd574] (05/23) Accurately ripped
06 [91efe5fb] (06/24) Accurately ripped
07 [693d828a] (06/24) Accurately ripped
08 [88b362f4] (06/24) Accurately ripped
09 [855edae8] (05/23) Accurately ripped
10 [b9e279d6] (06/24) Accurately ripped
11 [725107c1] (06/24) Accurately ripped

Track Peak [ CRC32 ] [W/O NULL] [ LOG ]
– 100,0 [4A9BD986] [AF8E6542] CRC32
01 98,4 [596E775F] [9CEB526C]
02 98,4 [607034AC] [44ECC4EC]
03 98,3 [F5EB28B3] [7BE1C0D2]
04 98,5 [BE55DF88] [2E252A26]
05 98,2 [83BCF9C8] [B76121A7]
06 98,8 [260B7532] [613C7DB9]
07 92,5 [715B8F64] [12659E04]
08 99,1 [C294DBA5] [42ADA9F5]
09 98,5 [EAF7C952] [0BED2CC1]
10 87,8 [33CCCDCE] [AD845545]
11 100,0 [13F4CA23] [12EE3FFC]

Secret Oyster - Discography [5 Albums] (1973-2007) (Repost)

Secret Oyster - Live in the USA 2007 (2008)
EAC Rip | WavPack (image+.cue+log) - 368 MB | MP3 CBR 320 kbps (LAME 3.93) - 122 MB | Covers - 48 MB
Genre: Progressive/Jazz Rock | RAR 3% Rec. | Label: Calibrated (CALI070)

Tracklist:
01. Sirenerne
02. Oysterjungle
03. Black Mist
04. Rubber Star
05. Paella
06. Leda And The Dog
07. Pajamamafia
08. Traffic & Elephants
09. Mind Movie

Total time: 52:01

Exact Audio Copy V1.0 beta 3 from 29. August 2011

EAC extraction logfile from 20. August 2012, 14:46

Secret Oyster / Live in the USA 2007

Used drive : PIONEER DVD-RW DVR-218L Adapter: 1 ID: 0

Read mode : Secure
Utilize accurate stream : Yes
Defeat audio cache : Yes
Make use of C2 pointers : No

Read offset correction : 6
Overread into Lead-In and Lead-Out : No
Fill up missing offset samples with silence : Yes
Delete leading and trailing silent blocks : No
Null samples used in CRC calculations : Yes
Used interface : Native Win32 interface for Win NT & 2000

Used output format : User Defined Encoder
Selected bitrate : 896 kBit/s
Quality : High
Add ID3 tag : No
Command line compressor : C:\Program Files\Exact Audio Copy\wavpack\wavpack.exe
Additional command line options : -hlmx2 %source% %dest%


TOC of the extracted CD

Track | Start | Length | Start sector | End sector
––––––––––––––––––––––––––––-
1 | 0:00.00 | 5:18.13 | 0 | 23862
2 | 5:18.13 | 3:22.04 | 23863 | 39016
3 | 8:40.17 | 3:59.31 | 39017 | 56972
4 | 12:39.48 | 4:40.39 | 56973 | 78011
5 | 17:20.12 | 4:39.66 | 78012 | 99002
6 | 22:00.03 | 6:36.50 | 99003 | 128752
7 | 28:36.53 | 7:59.62 | 128753 | 164739
8 | 36:36.40 | 6:45.51 | 164740 | 195165
9 | 43:22.16 | 8:38.26 | 195166 | 234041


Range status and errors

Selected range

Filename C:\Documents and Settings\empireisky\Мои документы\Моя музыка\Secret Oyster - Live in the USA 2007\Secret Oyster - Live in the USA 2007.wav

Peak level 100.0 %
Extraction speed 1.3 X
Range quality 100.0 %
Test CRC BBD5128E
Copy CRC BBD5128E
Copy OK

No errors occurred


AccurateRip summary

Track 1 accurately ripped (confidence 3) [C842A2B2] (AR v1)
Track 2 accurately ripped (confidence 3) [9F106F57] (AR v1)
Track 3 accurately ripped (confidence 3) [6D38B0BE] (AR v1)
Track 4 accurately ripped (confidence 3) [6EEBF766] (AR v1)
Track 5 accurately ripped (confidence 3) [EEC30AFB] (AR v1)
Track 6 accurately ripped (confidence 3) [A2BBD586] (AR v1)
Track 7 accurately ripped (confidence 3) [F5122723] (AR v1)
Track 8 accurately ripped (confidence 3) [7C84123C] (AR v1)
Track 9 accurately ripped (confidence 3) [B9B4368E] (AR v1)

All tracks accurately ripped

End of status report

–– CUETools DB Plugin V2.1.3

[CTDB TOCID: VqAPXde3yXK7VvcRYh4dN6Tqu8I-] disk not present in database, Submit result: VqAPXde3yXK7VvcRYh4dN6Tqu8I- has been uploaded


==== Log checksum 546883A8C053DBB2B839B6EDEA402035D5F2F33A133A1FB326F380F2A8F39BDD ====

[CUETools log; Date: 19.02.2019 15:04:51; Version: 2.1.4]
[CTDB TOCID: VqAPXde3yXK7VvcRYh4dN6Tqu8I-] found.
Track | CTDB Status
1 | (6/6) Accurately ripped
2 | (6/6) Accurately ripped
3 | (6/6) Accurately ripped
4 | (6/6) Accurately ripped
5 | (6/6) Accurately ripped
6 | (6/6) Accurately ripped
7 | (6/6) Accurately ripped
8 | (6/6) Accurately ripped
9 | (6/6) Accurately ripped
[AccurateRip ID: 000f8eb1-00756235-5e0c3009] found.
Track [ CRC | V2 ] Status
01 [c842a2b2|6b02ae55] (4+2/6) Accurately ripped
02 [9f106f57|e1736f80] (4+2/6) Accurately ripped
03 [6d38b0be|2fac2086] (4+2/6) Accurately ripped
04 [6eebf766|a7fc2f64] (4+2/6) Accurately ripped
05 [eec30afb|d695e272] (4+2/6) Accurately ripped
06 [a2bbd586|e384cb4c] (4+2/6) Accurately ripped
07 [f5122723|675174f4] (4+2/6) Accurately ripped
08 [7c84123c|5f5ce13a] (4+2/6) Accurately ripped
09 [b9b4368e|77dd0e77] (4+2/6) Accurately ripped

Track Peak [ CRC32 ] [W/O NULL] [ LOG ]
– 100,0 [BBD5128E] [BEF94237] CRC32
01 99,8 [A8481A25] [23F701F8]
02 100,0 [0B23F496] [25DD1B7D]
03 100,0 [E2B039F2] [828BAF6C]
04 100,0 [6A9B5499] [6E731EF1]
05 100,0 [2EEF5CF4] [FC17A15C]
06 94,2 [A63A611D] [27B35B49]
07 99,8 [28BA392E] [55BEB01A]
08 99,8 [50A934DE] [0716B2AA]
09 100,0 [4054B80F] [8825CDEB]

Thanks to arizonadream