Subcategories

Seong-Jin Cho - Debussy (2017)

Posted By: SERTiL
Seong-Jin Cho - Debussy (2017)

Seong-Jin Cho - Debussy (2017)
EAC Rip | FLAC (tracks)+cue, log, m3u, d. booklet | 170 MB
Label: Deutsche Grammophon – 4798308 | Tracks: 17 | Time: 72:38 min
Classical, Piano

With "a poetic sensibility that evokes the fantastical sound world of the early Romantics" (San Francisco Chronicle), 2015 International Chopin Piano Competition winner Seong-Jin Cho explores the music of Claude Debussy in honor of the 100th anniversary of the composer’s death. Seong-Jin Cho’s third album on Deutsche Grammophon features Debussy’s most popular works and cycles, such as Images I & II, Suite Bergamasque and Children’s Corner.

In his latest recording the 23-year-old South Korean pianist Seong-Jin Cho presents an all-Debussy programme. Debussy follows Cho’s two best-selling Chopin recordings.

It is entirely fitting that Seong-Jin Cho, winner of the 2015 International Chopin Piano Competition, should now turn to Debussy. Towards his life’s close, the French composer edited the piano works of Chopin, an experience that reignited his creativity, opening his heart to music he had loved since childhood. In turn, Cho’s connection to Debussy runs deep. He performed "Golliwogg’s Cake-walk" from Children’s Corner as part of his first public recital at the age of eleven, and his passion for the composer developed in parallel with his exploration of Chopin. He was therefore delighted to have the opportunity of commemorating the centenary of Debussy’s death, which falls in March 2018, with his own tribute.

Since childhood, Cho has felt many affinities with Debussy and he was keen to mark the centenary in his own style. The album features both books of Images, each comprising three pieces of breathtaking imagination, in company with Children’s Corner and Suite Bergamasque, the latter including the hugely popular "Clair de lune". Rounding things off in jubilant fashion is the beautiful "L’Isle joyeuse".

Cho’s album begins with music that sounds as if it could have existed for all eternity, despite bearing the hallmarks of what its composer described as "the most recent discoveries of harmonic chemistry." The enigmatic opening of “Reflets dans l’eau” from Images I sets the mood for the pianist’s tribute to one of the last century’s most original creative minds. He goes on to perform the remaining works of the two books of Images, bringing out every subtle nuance of music that demands true virtuosity. The Children’s Corner suite offers inventiveness, fantasy and touches of humour followed by the elegant Suite bergamasque, at whose heart lies the haunting "Clair de lune". Rounding off proceedings is L’Isle joyeuse whose atmospheric, energetic writing makes it the ideal finale to this homage to Debussy.

Tracklist:

Claude Debussy (1862-1918)

01. Debussy: Images I, L. 110-1. Reflets dans l'eau
02. Debussy: Images I, L. 110-2. Hommage à Rameau
03. Debussy: Images I, L. 110-3. Mouvement
04. Debussy: Images II, L. 111-1. Cloches à travers les feuilles
05. Debussy: Images II, L. 111-2. Et la lune descend sur le temple qui fut
06. Debussy: Images II, L. 111-3. Poissons d'or
07. Debussy: Children's Corner, L. 113-1. Doctor Gradus Ad Parnassum
08. Debussy: Children's Corner, L. 113-2. Jimbo's Lullaby
09. Debussy: Children's Corner, L. 113-3. Serenade For The Doll
10. Debussy: Children's Corner, L. 113-4. The Snow Is Dancing
11. Debussy: Children's Corner, L. 113-5. The Little Shepherd
12. Debussy: Children's Corner, L. 113-6. Golliwog's Cakewalk
13. Debussy: Suite bergamasque, L. 75-1. Prélude
14. Debussy: Suite bergamasque, L. 75-2. Menuet
15. Debussy: Suite bergamasque, L. 75-3. Clair de lune
16. Debussy: Suite bergamasque, L. 75-4. Passepied
17. Debussy: L'isle joyeuse, L. 106

Personnel:
Seong-Jin Cho, piano
Myung-Whun Chung, piano
Staatskapelle Dresden
London Symphony Orchestra
Gianandrea Noseda, conductor

Exact Audio Copy V1.3 from 2. September 2016

EAC extraction logfile from 3. February 2018, 23:56

Seong-Jin Cho / Debussy Images I & II; Suite Bergamasque; Children's Corner

Used drive : MITSUMI CR-48X9TE Adapter: 1 ID: 0

Read mode : Secure
Utilize accurate stream : Yes
Defeat audio cache : Yes
Make use of C2 pointers : No

Read offset correction : 733
Overread into Lead-In and Lead-Out : No
Fill up missing offset samples with silence : Yes
Delete leading and trailing silent blocks : No
Null samples used in CRC calculations : Yes
Used interface : Native Win32 interface for Win NT & 2000
Gap handling : Appended to previous track

Used output format : User Defined Encoder
Selected bitrate : 1024 kBit/s
Quality : High
Add ID3 tag : No
Command line compressor : C:\Program Files (x86)\Exact Audio Copy\Flac\flac.exe
Additional command line options : -8 -e -p -V -T "ARTIST=%artist%" -T "TITLE=%title%" -T "ALBUM=%albumtitle%" -T "DATE=%year%" -T "TRACKNUMBER=%tracknr%" -T "GENRE=%genre%" -T "PERFORMER=%albuminterpret%" -T "COMPOSER=%composer%" %haslyrics%–tag-from-file=LYRICS="%lyricsfile%"%haslyrics% -T "ALBUMARTIST=%albumartist%" -T "DISCNUMBER=%cdnumber%" -T "TOTALDISCS=%totalcds%" -T "TOTALTRACKS=%numtracks%" -T "COMMENT=%comment%" %source% -o %dest%


TOC of the extracted CD

Track | Start | Length | Start sector | End sector
––––––––––––––––––––––––––––-
1 | 0:00.00 | 5:44.03 | 0 | 25802
2 | 5:44.03 | 7:05.17 | 25803 | 57694
3 | 12:49.20 | 3:30.36 | 57695 | 73480
4 | 16:19.56 | 4:32.69 | 73481 | 93949
5 | 20:52.50 | 5:56.60 | 93950 | 120709
6 | 26:49.35 | 4:22.50 | 120710 | 140409
7 | 31:12.10 | 2:21.74 | 140410 | 151058
8 | 33:34.09 | 3:40.62 | 151059 | 167620
9 | 37:14.71 | 2:42.03 | 167621 | 179773
10 | 39:56.74 | 2:29.26 | 179774 | 190974
11 | 42:26.25 | 2:53.70 | 190975 | 204019
12 | 45:20.20 | 2:59.20 | 204020 | 217464
13 | 48:19.40 | 4:30.57 | 217465 | 237771
14 | 52:50.22 | 4:15.52 | 237772 | 256948
15 | 57:05.74 | 5:30.63 | 256949 | 281761
16 | 62:36.62 | 3:55.12 | 281762 | 299398
17 | 66:31.74 | 6:15.14 | 299399 | 327537


Track 1

Filename C:\Seong-Jin Cho - Debussy - Debussy Images I & II; Suite Bergamasque; Children's Corner (2017) {DG 4798308} [CD-FLAC]\01 - Images I Reflets dans l'eau.wav

Pre-gap length 0:00:02.00

Peak level 94.0 %
Extraction speed 1.2 X
Track quality 100.0 %
Test CRC 41DDB26D
Copy CRC 41DDB26D
Accurately ripped (confidence 1) [CA7BCC50] (AR v2)
Copy OK

Track 2

Filename C:\Seong-Jin Cho - Debussy - Debussy Images I & II; Suite Bergamasque; Children's Corner (2017) {DG 4798308} [CD-FLAC]\02 - Images I Hommage à Rameau.wav

Peak level 80.0 %
Extraction speed 3.5 X
Track quality 100.0 %
Test CRC 0632B83E
Copy CRC 0632B83E
Accurately ripped (confidence 1) [76F49A0F] (AR v2)
Copy OK

Track 3

Filename C:\Seong-Jin Cho - Debussy - Debussy Images I & II; Suite Bergamasque; Children's Corner (2017) {DG 4798308} [CD-FLAC]\03 - Images I Mouvement.wav

Peak level 94.6 %
Extraction speed 3.1 X
Track quality 99.9 %
Test CRC BBCF2658
Copy CRC BBCF2658
Accurately ripped (confidence 1) [DEF21EA4] (AR v2)
Copy OK

Track 4

Filename C:\Seong-Jin Cho - Debussy - Debussy Images I & II; Suite Bergamasque; Children's Corner (2017) {DG 4798308} [CD-FLAC]\04 - Images II Cloches à travers les feuilles.wav

Peak level 57.5 %
Extraction speed 3.7 X
Track quality 100.0 %
Test CRC 5F991322
Copy CRC 5F991322
Accurately ripped (confidence 1) [DB920FF2] (AR v2)
Copy OK

Track 5

Filename C:\Seong-Jin Cho - Debussy - Debussy Images I & II; Suite Bergamasque; Children's Corner (2017) {DG 4798308} [CD-FLAC]\05 - Images II Et la lune descend sur le temple qui fut.wav

Peak level 23.7 %
Extraction speed 4.2 X
Track quality 100.0 %
Test CRC B4510CDD
Copy CRC B4510CDD
Accurately ripped (confidence 1) [CA5B70D1] (AR v2)
Copy OK

Track 6

Filename C:\Seong-Jin Cho - Debussy - Debussy Images I & II; Suite Bergamasque; Children's Corner (2017) {DG 4798308} [CD-FLAC]\06 - Images II Poissons d'or.wav

Peak level 93.6 %
Extraction speed 4.3 X
Track quality 100.0 %
Test CRC 24E67BCF
Copy CRC 24E67BCF
Accurately ripped (confidence 1) [2372DA8F] (AR v2)
Copy OK

Track 7

Filename C:\Seong-Jin Cho - Debussy - Debussy Images I & II; Suite Bergamasque; Children's Corner (2017) {DG 4798308} [CD-FLAC]\07 - Children's Corner Doctor Gradus Ad Parnassum.wav

Peak level 67.6 %
Extraction speed 3.9 X
Track quality 100.0 %
Test CRC 902C0A35
Copy CRC 902C0A35
Accurately ripped (confidence 1) [890655A7] (AR v2)
Copy OK

Track 8

Filename C:\Seong-Jin Cho - Debussy - Debussy Images I & II; Suite Bergamasque; Children's Corner (2017) {DG 4798308} [CD-FLAC]\08 - Children's Corner Jimbo's Lullaby.wav

Peak level 25.9 %
Extraction speed 4.4 X
Track quality 100.0 %
Test CRC EC2D8B6C
Copy CRC EC2D8B6C
Accurately ripped (confidence 1) [7D88412A] (AR v2)
Copy OK

Track 9

Filename C:\Seong-Jin Cho - Debussy - Debussy Images I & II; Suite Bergamasque; Children's Corner (2017) {DG 4798308} [CD-FLAC]\09 - Children's Corner Serenade For The Doll.wav

Peak level 35.0 %
Extraction speed 4.2 X
Track quality 100.0 %
Test CRC 653A3A25
Copy CRC 653A3A25
Accurately ripped (confidence 1) [9CADD9E0] (AR v2)
Copy OK

Track 10

Filename C:\Seong-Jin Cho - Debussy - Debussy Images I & II; Suite Bergamasque; Children's Corner (2017) {DG 4798308} [CD-FLAC]\10 - Children's Corner The Snow Is Dancing.wav

Peak level 43.0 %
Extraction speed 4.2 X
Track quality 100.0 %
Test CRC A9F9CF59
Copy CRC A9F9CF59
Accurately ripped (confidence 1) [AF08F026] (AR v2)
Copy OK

Track 11

Filename C:\Seong-Jin Cho - Debussy - Debussy Images I & II; Suite Bergamasque; Children's Corner (2017) {DG 4798308} [CD-FLAC]\11 - Children's Corner The Little Shepherd.wav

Peak level 42.6 %
Extraction speed 3.9 X
Track quality 99.9 %
Test CRC 843078C4
Copy CRC 843078C4
Accurately ripped (confidence 1) [AD1728BA] (AR v2)
Copy OK

Track 12

Filename C:\Seong-Jin Cho - Debussy - Debussy Images I & II; Suite Bergamasque; Children's Corner (2017) {DG 4798308} [CD-FLAC]\12 - Children's Corner Golliwog's Cakewalk.wav

Peak level 88.3 %
Extraction speed 4.0 X
Track quality 99.9 %
Test CRC 741D1EC7
Copy CRC 741D1EC7
Accurately ripped (confidence 1) [22B6F4D7] (AR v2)
Copy OK

Track 13

Filename C:\Seong-Jin Cho - Debussy - Debussy Images I & II; Suite Bergamasque; Children's Corner (2017) {DG 4798308} [CD-FLAC]\13 - Suite Bergamasque Prélude.wav

Peak level 82.8 %
Extraction speed 5.0 X
Track quality 100.0 %
Test CRC 902F990F
Copy CRC 902F990F
Accurately ripped (confidence 1) [63E15CFD] (AR v2)
Copy OK

Track 14

Filename C:\Seong-Jin Cho - Debussy - Debussy Images I & II; Suite Bergamasque; Children's Corner (2017) {DG 4798308} [CD-FLAC]\14 - Suite Bergamasque Menuet.wav

Peak level 68.5 %
Extraction speed 5.1 X
Track quality 100.0 %
Test CRC 34F5D112
Copy CRC 34F5D112
Accurately ripped (confidence 1) [751B6705] (AR v2)
Copy OK

Track 15

Filename C:\Seong-Jin Cho - Debussy - Debussy Images I & II; Suite Bergamasque; Children's Corner (2017) {DG 4798308} [CD-FLAC]\15 - Suite Bergamasque Clair de lune.wav

Peak level 56.1 %
Extraction speed 5.4 X
Track quality 100.0 %
Test CRC 0C0AD0D0
Copy CRC 0C0AD0D0
Accurately ripped (confidence 1) [2F8B22CE] (AR v2)
Copy OK

Track 16

Filename C:\Seong-Jin Cho - Debussy - Debussy Images I & II; Suite Bergamasque; Children's Corner (2017) {DG 4798308} [CD-FLAC]\16 - Suite Bergamasque Passepied.wav

Peak level 55.2 %
Extraction speed 5.2 X
Track quality 100.0 %
Test CRC E99AE3E6
Copy CRC E99AE3E6
Accurately ripped (confidence 1) [549B2D28] (AR v2)
Copy OK

Track 17

Filename C:\Seong-Jin Cho - Debussy - Debussy Images I & II; Suite Bergamasque; Children's Corner (2017) {DG 4798308} [CD-FLAC]\17 - L'isle joyeuse.wav

Peak level 94.7 %
Extraction speed 5.3 X
Track quality 99.9 %
Test CRC 7BBEF245
Copy CRC 7BBEF245
Accurately ripped (confidence 1) [97B90594] (AR v2)
Copy OK


All tracks accurately ripped

No errors occurred

End of status report

–– CUETools DB Plugin V2.1.6

[CTDB TOCID: ttjFj74xoG2LF1Zws3a932x6C8w-] found
Submit result: The operation has timed out
Track | CTDB Status
1 | (19/19) Accurately ripped
2 | (19/19) Accurately ripped
3 | (19/19) Accurately ripped
4 | (19/19) Accurately ripped
5 | (19/19) Accurately ripped
6 | (19/19) Accurately ripped
7 | (19/19) Accurately ripped
8 | (19/19) Accurately ripped
9 | (19/19) Accurately ripped
10 | (19/19) Accurately ripped
11 | (19/19) Accurately ripped
12 | (19/19) Accurately ripped
13 | (19/19) Accurately ripped
14 | (19/19) Accurately ripped
15 | (19/19) Accurately ripped
16 | (19/19) Accurately ripped
17 | (19/19) Accurately ripped


==== Log checksum ADC93CF1AC9B1ED7BB5EB8E52916A85890A3CF77DF7CC7CFE6492E832B310C53 ====


Thanks to the Original customer.