Subcategories

Sergio Cervetti - Transits: Minimal to Mayhem (2015)

Posted By: tirexiss
Sergio Cervetti - Transits: Minimal to Mayhem (2015)

Sergio Cervetti - Transits: Minimal to Mayhem (2015)
EAC | FLAC (image+.cue, log) | Covers + Digital Booklet | 59:01 | 277 MB
Genre: Classical | Label: Navona Records | Catalog: NV6001

TRANSITS: Minimal to Mayhem, his fifth full Navona Records release, is an abridged sequence of five works from a set time and concrete place that maps composer Sergio Cervetti's creative progression over four decades of composing.
Written in 2013, Concertino for piano, woodwinds and timpani is a rowdy and raucous array of South American rhythms tempered by a tender quote from Gustav Mahler's Kindertotenlieder. One of Cervetti's last minimalist works, Exiles (1980), was created on the Synclavier and begins with a slow piano rendition of a melodic theme from the Uruguayan patriotic song Mi Bandera, which is soon overwhelmed by electronic textures. In contrast, Guitar Music (the bottom of the iceberg) is an early minimalist work for solo guitar from 1975 that is an experiment with "restricted pitch-classes" and a nuanced tour-de-force with a soupçon of flamenco.
The two works that complete TRANSITS are based on the history and culture of the Río de la Plata where Cervetti was born and raised. El Río de los Pájaros Pintados (1979) seamlessly integrates the bandoneón with electronics, its title being the Spanish translation of the native Guarani Indian word "Uru-Guay" meaning "The River of the Painted Birds." Candombe for Orchestra is the 1996 orchestration of Candombe for Harpsichord (1984), both works indebted to a Uruguayan national dance of African origin designated by UNESCO as an intangible cultural treasure.

Sergio Cervetti - Transits: Minimal to Mayhem (2015)

Track List:

Concertino for piano, woodwinds & timpani (2013)
1. I. Echa p'alante
2. II. Nana
3. III. Chorinho
Karolina Rojahn, piano
Mike Williams, timpani
Woodwinds ensemble conducted by Geoffrey McDonald

4. Exiles for piano & electronics (1980)
Sergio Cervetti, piano & electronics

5. Guitar Music (The Bottom of the Iceberg) (1975)
Stuart Fox, guitar

6. El Rio De Los Pajaros Pintados for bandoneon & electronics (1979)
Rene Marino Rivero, bandoneon
Sergio Cervetti, electronics

7. Candombe for orchestra (1996)
Moravian Philharmonic Orchestra
Jiri Mikula

Exact Audio Copy V1.0 beta 1 from 15. November 2010

EAC extraction logfile from 31. August 2015, 17:09

Sergio Cervetti / Transits: Minimal to Mayhem

Used drive : Optiarc DVD RW AD-7203A Adapter: 4 ID: 1

Read mode : Secure
Utilize accurate stream : Yes
Defeat audio cache : Yes
Make use of C2 pointers : No

Read offset correction : 48
Overread into Lead-In and Lead-Out : No
Fill up missing offset samples with silence : Yes
Delete leading and trailing silent blocks : No
Null samples used in CRC calculations : Yes
Used interface : Native Win32 interface for Win NT & 2000

Used output format : User Defined Encoder
Selected bitrate : 128 kBit/s
Quality : High
Add ID3 tag : No
Command line compressor : C:\Program Files\FLAC\flac.exe
Additional command line options : -T "COMMENT=Ripped by GFox" -8 -V %s


TOC of the extracted CD

Track | Start | Length | Start sector | End sector
––––––––––––––––––––––––––––-
1 | 0:00.00 | 7:57.29 | 0 | 35803
2 | 7:57.29 | 4:54.17 | 35804 | 57870
3 | 12:51.46 | 4:26.32 | 57871 | 77852
4 | 17:18.03 | 9:55.38 | 77853 | 122515
5 | 27:13.41 | 10:48.37 | 122516 | 171152
6 | 38:02.03 | 11:43.00 | 171153 | 223877
7 | 49:45.03 | 9:16.68 | 223878 | 265645
8 | 61:33.71 | 0:09.24 | 277046 | 277744


Range status and errors

Selected range

Filename D:\EAC\Sergio Cervetti - Transits- Minimal to Mayhem.wav

Peak level 100.0 %
Extraction speed 0.0 X
Range quality 100.0 %
Test CRC AF3CCBAF
Copy CRC AF3CCBAF
Copy OK

No errors occurred


AccurateRip summary

Track 1 not present in database
Track 2 not present in database
Track 3 not present in database
Track 4 not present in database
Track 5 not present in database
Track 6 not present in database
Track 7 not present in database

None of the tracks are present in the AccurateRip database

End of status report

==== Log checksum 99C4CEF51B05430D5271A2B5067CB2C409481E85046D2294939D352D512C7BB3 ====

Thanks to the Original ripper GFox!

Download: