Subcategories

Sergio Mendes - Mas Que Nada (1961/1988) {West Wind}

Posted By: tiburon
Sergio Mendes - Mas Que Nada (1961/1988) {West Wind}

Sergio Mendes - Mas Que Nada (1961/1988) {West Wind}
EAC 0.95b4 | FLAC tracks level 8 | Cue+Log+M3U | Full Scans 300dpi | 195MB + 5% Recovery
MP3 CBR 320 Kbps | 86MB + 5% Recovery
Genre: Latin Jazz, Bossa Nova

The first Sergio Mendes LP bears few of the soft pop hallmarks of his subsequent Brasil '66 classics. Instead, Dance Moderno is a focused and straight-ahead collection of bossa nova grooves firmly in debt to the acknowledged master of the form, Antonio Carlos Jobim. Paired with a small, tight supporting unit, Mendes proves himself an inventive and intense pianist, shaped by both traditional Latin music and American jazz.
Track List
01. Oba-La-La 2:28
02. Love For Sale 3:00
03. Tristeza De Nos Dois 2:13
04. What Is This Thing Called Love? 2:33
05. Olhou Para Mim 2:50
06. Satin Doll 2:44
07. Tema Sem Palavras 1:59
08. On Green Dolphin Street 2:47
09. Outra Vez 2:24
10. Disa 2:40
11. Sica's Dream 2:47
12. Diagonal 1:28
13. Mas Que Nada 2:38


EAC extraction logfile from 10. December 2007, 19:48 for CD
Sergio Mendes / Mas Que Nada

Used drive : PLEXTOR CD-R PREMIUM2 Adapter: 1 ID: 1
Read mode : Secure with NO C2, accurate stream, disable cache
Read offset correction : 30
Overread into Lead-In and Lead-Out : No

Used output format : C:\Programmi\Eac\flac.exe (User Defined Encoder)
32 kBit/s
Additional command line options : -8 -V -T "artist=%a" -T "title=%t" -T "album=%g" -T "date=%y" -T "tracknumber=%n" -T "genre=%m" -T "comment=Exact Audio Copy 0.95b4, Flac 1.1.4.a -8" %s

Other options :
Fill up missing offset samples with silence : Yes
Delete leading and trailing silent blocks : No
Installed external ASPI interface


Track 1
Filename C:\Eac\Sergio Mendes - Mas Que Nada (1998) [FLAC]\01 - Oba-La-La.wav

Pre-gap length 0:00:02.00

Peak level 100.0 %
Track quality 100.0 %
Test CRC 23D4A05A
Copy CRC 23D4A05A
Copy OK

Track 2
Filename C:\Eac\Sergio Mendes - Mas Que Nada (1998) [FLAC]\02 - Love For Sale.wav

Peak level 97.3 %
Track quality 100.0 %
Test CRC C509AFA3
Copy CRC C509AFA3
Copy OK

Track 3
Filename C:\Eac\Sergio Mendes - Mas Que Nada (1998) [FLAC]\03 - Tristeza De Nos Dois.wav

Peak level 91.5 %
Track quality 100.0 %
Test CRC 732FD72D
Copy CRC 732FD72D
Copy OK

Track 4
Filename C:\Eac\Sergio Mendes - Mas Que Nada (1998) [FLAC]\04 - What Is This Thing Called Love.wav

Peak level 100.0 %
Track quality 100.0 %
Test CRC 912EF6A5
Copy CRC 912EF6A5
Copy OK

Track 5
Filename C:\Eac\Sergio Mendes - Mas Que Nada (1998) [FLAC]\05 - Olhou Para Mim.wav

Peak level 100.0 %
Track quality 100.0 %
Test CRC 17311722
Copy CRC 17311722
Copy OK

Track 6
Filename C:\Eac\Sergio Mendes - Mas Que Nada (1998) [FLAC]\06 - Satin Doll.wav

Peak level 99.9 %
Track quality 100.0 %
Test CRC B5F324F2
Copy CRC B5F324F2
Copy OK

Track 7
Filename C:\Eac\Sergio Mendes - Mas Que Nada (1998) [FLAC]\07 - Tema Sem Palavras.wav

Peak level 100.0 %
Track quality 100.0 %
Test CRC 650CFCF4
Copy CRC 650CFCF4
Copy OK

Track 8
Filename C:\Eac\Sergio Mendes - Mas Que Nada (1998) [FLAC]\08 - On Green Dolphin Street.wav

Peak level 100.0 %
Track quality 100.0 %
Test CRC 98D70908
Copy CRC 98D70908
Copy OK

Track 9
Filename C:\Eac\Sergio Mendes - Mas Que Nada (1998) [FLAC]\09 - Outra Vez.wav

Peak level 93.7 %
Track quality 100.0 %
Test CRC 8037DEA6
Copy CRC 8037DEA6
Copy OK

Track 10
Filename C:\Eac\Sergio Mendes - Mas Que Nada (1998) [FLAC]\10 - Disa.wav

Peak level 100.0 %
Track quality 100.0 %
Test CRC A2CF51D8
Copy CRC A2CF51D8
Copy OK

Track 11
Filename C:\Eac\Sergio Mendes - Mas Que Nada (1998) [FLAC]\11 - Sica's Dream.wav

Peak level 100.0 %
Track quality 100.0 %
Test CRC E6D4FF5E
Copy CRC E6D4FF5E
Copy OK

Track 12
Filename C:\Eac\Sergio Mendes - Mas Que Nada (1998) [FLAC]\12 - Diagonal.wav

Peak level 99.8 %
Track quality 100.0 %
Test CRC 7DEFDF8B
Copy CRC 7DEFDF8B
Copy OK

Track 13
Filename C:\Eac\Sergio Mendes - Mas Que Nada (1998) [FLAC]\13 - Mas Que Nada.wav

Peak level 93.8 %
Track quality 99.9 %
Test CRC 21D28BFB
Copy CRC 21D28BFB
Copy OK

No errors occured


End of status report



––––––––––––––––––––––––––––––––––––––––
Analyzed: Sergio Mendes / Mas Que Nada
––––––––––––––––––––––––––––––––––––––––

DR Peak RMS Duration Track
––––––––––––––––––––––––––––––––––––––––
DR10 0.00 dB -11.07 dB 2:29 01-Oba-La-La
DR10 -0.23 dB -12.10 dB 3:00 02-Love For Sale
DR10 -0.77 dB -13.57 dB 2:13 03-Tristeza De Nos Dois
DR11 0.00 dB -13.19 dB 2:33 04-What Is This Thing Called Love
DR10 0.00 dB -12.32 dB 2:51 05-Olhou Para Mim
DR11 0.00 dB -12.74 dB 2:45 06-Satin Doll
DR10 0.00 dB -11.48 dB 1:59 07-Tema Sem Palavras
DR11 0.00 dB -12.96 dB 2:47 08-On Green Dolphin Street
DR10 -0.56 dB -12.39 dB 2:24 09-Outra Vez
DR12 0.00 dB -15.07 dB 2:41 10-Disa
DR10 0.00 dB -11.37 dB 2:47 11-Sica's Dream
DR10 -0.01 dB -12.74 dB 1:28 12-Diagonal
DR7 -0.56 dB -9.25 dB 2:38 13-Mas Que Nada
––––––––––––––––––––––––––––––––––––––––

Number of tracks: 13
Official DR value: DR10

Samplerate: 44100 Hz
Channels: 2
Bits per sample: 16
Bitrate: 922 kbps
Codec: FLAC
================================================================================

Sergio Mendes - Mas Que Nada (1961/1988) {West Wind}
Sergio Mendes - Mas Que Nada (1961/1988) {West Wind}
Sergio Mendes - Mas Que Nada (1961/1988) {West Wind}


Thanks to the original ripper