Serú Girán ‎– Yo No Quiero Volverme Tan Loco (2000) 2 CD

Posted By: hill0
Serú Girán ‎– Yo No Quiero Volverme Tan Loco (2000) 2 CD

Serú Girán ‎– Yo No Quiero Volverme Tan Loco (2000) 2 CD
EAC Rip | FLAC (image & cue & log) | 535 MB | MP3 CBR 320 kbps | 203 MB | Scans (JPG) | 35 MB | 1:26:54
Genre: Prog Rock / Jazz-Rock / Symphonic Rock | Country: Argentina | Label: Sony/Columbia | 2-493696

Yo no quiero volverme tan loco is the third and last live album of Serú Girán recorded in December 1981 and released in 2000. It was recorded at the Teatro Coliseo in Buenos Aires.
Serú Girán ‎– Yo No Quiero Volverme Tan Loco (2000) 2 CD

Serú Girán is a progressive rock band starring Argentine Rock star Charly García, guitar player David Lebón, the young multi-instrumentalist Pedro Aznar, and the late drummer Oscar Moro. In the late '70s after Charly's symphonic rock project "La Máquina de Hacer Pajaros," which was a commercial failure, came to an end, Charly García moved to Brazil to start a new project and met guitar player and singer David Lebón. He decided to go back to Buenos Aires in search of musicians and "Serú Girán" was born and their eponymous debut was recorded in 1978. They played their first show and the audience were puzzled and disappointed as they were expecting music in the vein of "Sui Géneris." Afterwards, the press highly criticized the band. They continued playing to audiences and some warmed up to the new, more complex sound.

In 1979, they released the more accessible "La Grasa de las Capitales," which featured simpler compositions, and more direct and more aggressive lyrics rather than continue the more abstract poetry in the debut. This album was a success and put them to fame. Their third album "Bicicleta" is widely regarded as their musical peak and most mature album. It focused on adventurous songwriting, strong melodies, and continued those controversial political lyrics that almost caused the musicians to serve jail time. Serú Girán's popularity kept growing and they were dubbed "The Argentine Beatles."

"Peperina" was released in 1981 and was another commercial success with some of the best lyrics Serú Girán has ever written, but most of the songs in "Peperina" are ballads and the progressive rock sound has diminshed. In 1982, Pat Metheny invited band member Pedro Aznar to join his band, resulting in Pedro Aznar leaving and Serú Girán disbanding. Before Aznar left, the band played a farewell show that was recorded in the live album "No Llores por mí, Argentina" which included the popular title track. In 1992, the band reunited and recorded a new studio album "Seru '92" which sold extremely well, but its sound is very different and this album is often considered to be their weakest effort.
~ progarchives
Serú Girán ‎– Yo No Quiero Volverme Tan Loco (2000) 2 CD



Tracklist

CD 1
1.Autos, jets, aviones, barcos
2.Salir de la melancolia
3.Oh dios, qué puedo hacer
4.Canción de Alicia en el Pais
5.A los jóvenes de ayer
6.Cuánto tiempo más llevará
7.Esperando nacer
8.Seminare
9.El mendigo en el andén
10.Parado en el medio de la vida
11.Espejismo en la nieve

CD 2
1.Inconciente colectivo
2.Alto en la torre
3.Cinema Verité
4.No llores por mi, Argentina
5.En la vereda del sol
6.Yo no quiero volverme tan loco
7.Mientras miro las nuevas olas
8.Encuentro con el diablo
9.Peperina
10.No llores por mi, Argentina (BIS)

Exact Audio Copy V1.0 beta 3 from 29. August 2011

Отчёт EAC об извлечении, выполненном 10. января 2012, 20:47

Serú Girán / Yo no quiero volverme tan loco CD 1

Дисковод: TSSTcorpCDDVDW TS-L633J Adapter: 0 ID: 1

Режим чтения : Достоверность
Использование точного потока : Да
Отключение кэша аудио : Да
Использование указателей C2 : Нет

Коррекция смещения при чтении : 6
Способность читать области Lead-in и Lead-out : Нет
Заполнение пропущенных сэмплов тишиной : Да
Удаление блоков с тишиной в начале и конце : Нет
При вычислениях CRC использовались нулевые сэмплы : Да
Интерфейс : Установленный внешний ASPI-интерфейс

Выходной формат : Пользовательский кодировщик
Выбранный битрейт : 128 kBit/s
Качество : Высокий
Добавление ID3-тега : Нет
Утилита сжатия : C:\Program Files\Exact Audio Copy\FLAC\FLAC.EXE
Дополнительные параметры : -6 -V -T "ARTIST=%artist%" -T "TITLE=%title%" -T "ALBUM=%albumtitle%" -T "DATE=%year%" -T "TRACKNUMBER=%tracknr%" -T "GENRE=%genre%" -T "COMMENT=%comment%" -T "BAND=%albuminterpret%" -T "ALBUMARTIST=%albuminterpret%" -T "COMPOSER=%composer%" %haslyrics%–tag-from-file=LYRICS="%lyricsfile%"%haslyrics% -T "DISCNUMBER=%cdnumber%" -T "TOTALDISCS=%totalcds%" -T "TOTALTRACKS=%numtracks%" %hascover%–picture="%coverfile%"%hascover% %source% -o %dest%


TOC извлечённого CD

Трек | Старт | Длительность | Начальный сектор | Конечный сектор
––––––––––––––––––––––––––––––––––-
1 | 0:00.00 | 4:11.65 | 0 | 18889
2 | 4:11.65 | 2:06.70 | 18890 | 28409
3 | 6:18.60 | 4:59.55 | 28410 | 50889
4 | 11:18.40 | 4:17.35 | 50890 | 70199
5 | 15:36.00 | 4:46.22 | 70200 | 91671
6 | 20:22.22 | 4:22.55 | 91672 | 111376
7 | 24:45.02 | 6:01.30 | 111377 | 138481
8 | 30:46.32 | 4:19.33 | 138482 | 157939
9 | 35:05.65 | 4:04.27 | 157940 | 176266
10 | 39:10.17 | 2:42.55 | 176267 | 188471
11 | 41:52.72 | 4:50.38 | 188472 | 210259


Характеристики диапазона извлечения и сообщения об ошибках

Выбранный диапазон

Имя файла C:\SERU GIRAN\CD 1\Serú Girán - Yo no quiero volverme tan loco CD 1.wav

Пиковый уровень 99.9 %
Скорость извлечения 2.8 X
Качество диапазона 100.0 %
CRC теста B3B40118
CRC копии B3B40118
Копирование… OK

Ошибок не произошло


AccurateRip: сводка

Трек 1 отсутствует в базе данных
Трек 2 отсутствует в базе данных
Трек 3 отсутствует в базе данных
Трек 4 отсутствует в базе данных
Трек 5 отсутствует в базе данных
Трек 6 отсутствует в базе данных
Трек 7 отсутствует в базе данных
Трек 8 отсутствует в базе данных
Трек 9 отсутствует в базе данных
Трек 10 отсутствует в базе данных
Трек 11 отсутствует в базе данных

Ни одного трека нет в базе AccurateRip

Конец отчёта

–– CUETools DB Plugin V2.1.3

[CTDB TOCID: 1GlwlMCYYxaHPDePG4XqHZSKsGQ-] disk not present in database, Submit result: 1GlwlMCYYxaHPDePG4XqHZSKsGQ- has been uploaded


==== Контрольная сумма отчёта FA3D2E2D9735B26994AE633415C71A37EB583EE9DCE5E344387EFCED069BF235 ====

Exact Audio Copy V1.0 beta 3 from 29. August 2011

Отчёт EAC об извлечении, выполненном 10. января 2012, 21:19

Serú Girán / Yo no quiero volverme tan loco CD 2

Дисковод: TSSTcorpCDDVDW TS-L633J Adapter: 0 ID: 1

Режим чтения : Достоверность
Использование точного потока : Да
Отключение кэша аудио : Да
Использование указателей C2 : Нет

Коррекция смещения при чтении : 6
Способность читать области Lead-in и Lead-out : Нет
Заполнение пропущенных сэмплов тишиной : Да
Удаление блоков с тишиной в начале и конце : Нет
При вычислениях CRC использовались нулевые сэмплы : Да
Интерфейс : Установленный внешний ASPI-интерфейс

Выходной формат : Пользовательский кодировщик
Выбранный битрейт : 128 kBit/s
Качество : Высокий
Добавление ID3-тега : Нет
Утилита сжатия : C:\Program Files\Exact Audio Copy\FLAC\FLAC.EXE
Дополнительные параметры : -6 -V -T "ARTIST=%artist%" -T "TITLE=%title%" -T "ALBUM=%albumtitle%" -T "DATE=%year%" -T "TRACKNUMBER=%tracknr%" -T "GENRE=%genre%" -T "COMMENT=%comment%" -T "BAND=%albuminterpret%" -T "ALBUMARTIST=%albuminterpret%" -T "COMPOSER=%composer%" %haslyrics%–tag-from-file=LYRICS="%lyricsfile%"%haslyrics% -T "DISCNUMBER=%cdnumber%" -T "TOTALDISCS=%totalcds%" -T "TOTALTRACKS=%numtracks%" %hascover%–picture="%coverfile%"%hascover% %source% -o %dest%


TOC извлечённого CD

Трек | Старт | Длительность | Начальный сектор | Конечный сектор
––––––––––––––––––––––––––––––––––-
1 | 0:00.00 | 2:08.60 | 0 | 9659
2 | 2:08.60 | 4:41.15 | 9660 | 30749
3 | 6:50.00 | 5:59.20 | 30750 | 57694
4 | 12:49.20 | 3:31.05 | 57695 | 73524
5 | 16:20.25 | 4:29.65 | 73525 | 93764
6 | 20:50.15 | 3:07.22 | 93765 | 107811
7 | 23:57.37 | 3:17.13 | 107812 | 122599
8 | 27:14.50 | 4:59.57 | 122600 | 145081
9 | 32:14.32 | 4:05.13 | 145082 | 163469
10 | 36:19.45 | 3:50.02 | 163470 | 180721


Характеристики диапазона извлечения и сообщения об ошибках

Выбранный диапазон

Имя файла C:\SERU GIRAN\CD 2\Serú Girán - Yo no quiero volverme tan loco CD 2.wav

Пиковый уровень 99.9 %
Скорость извлечения 2.7 X
Качество диапазона 100.0 %
CRC теста 0E4FF4EE
CRC копии 0E4FF4EE
Копирование… OK

Ошибок не произошло


AccurateRip: сводка

Трек 1 отсутствует в базе данных
Трек 2 отсутствует в базе данных
Трек 3 отсутствует в базе данных
Трек 4 отсутствует в базе данных
Трек 5 отсутствует в базе данных
Трек 6 отсутствует в базе данных
Трек 7 отсутствует в базе данных
Трек 8 отсутствует в базе данных
Трек 9 отсутствует в базе данных
Трек 10 отсутствует в базе данных

Ни одного трека нет в базе AccurateRip

Конец отчёта

–– CUETools DB Plugin V2.1.3

[CTDB TOCID: xeDfapudUtj5AS5NTRgGgQ2HeAE-] disk not present in database, Submit result: xeDfapudUtj5AS5NTRgGgQ2HeAE- has been uploaded


==== Контрольная сумма отчёта 4E5BC012B3EBA6EC698C260AD9E9D0A7088B6D6CA38A473BB3D494B7CFA576D8 ====

[CUETools log; Date: 01.11.2016 13:07:06; Version: 2.1.5]
[CTDB TOCID: 1GlwlMCYYxaHPDePG4XqHZSKsGQ-] found.
Track | CTDB Status
1 | (1/1) Accurately ripped
2 | (1/1) Accurately ripped
3 | (1/1) Accurately ripped
4 | (1/1) Accurately ripped
5 | (1/1) Accurately ripped
6 | (1/1) Accurately ripped
7 | (1/1) Accurately ripped
8 | (1/1) Accurately ripped
9 | (1/1) Accurately ripped
10 | (1/1) Accurately ripped
11 | (1/1) Accurately ripped
[AccurateRip ID: 0012f6ec-00a640b4-8d0af30b] found.
Track [ CRC | V2 ] Status
01 [d405a546|41052042] (0+1/1) Accurately ripped
02 [5d9d55c7|74fc258e] (0+1/1) Accurately ripped
03 [5e1b1748|e3b7cfa5] (0+1/1) Accurately ripped
04 [6fe9d802|c255c0bc] (0+1/1) Accurately ripped
05 [96ed4466|28171dd0] (0+1/1) Accurately ripped
06 [5bfd166f|b6c86126] (0+1/1) Accurately ripped
07 [b3ae2b6c|e52a547b] (0+1/1) Accurately ripped
08 [85ce4503|7a737c9f] (0+1/1) Accurately ripped
09 [5c24d447|674515cd] (0+1/1) Accurately ripped
10 [92051e44|932ad4fa] (0+1/1) Accurately ripped
11 [b8faea1c|3c721a72] (0+1/1) Accurately ripped

Track Peak [ CRC32 ] [W/O NULL] [ LOG ]
– 99,9 [B3B40118] [78939B98] CRC32
01 96,1 [037EFB44] [B7048525]
02 96,0 [482EC549] [2C40E36B]
03 96,0 [B7038A2B] [80EED2A1]
04 96,0 [3F3D251D] [0C91A777]
05 96,0 [D69C8929] [69A66CDE]
06 96,0 [2BA1F9AF] [EA38B52C]
07 99,9 [BE270D81] [F7614DF3]
08 96,0 [29AF2C50] [2B9353E6]
09 96,0 [15A9D4EF] [6BCA6EA0]
10 93,5 [4C3A8098] [1EF9A67E]
11 88,8 [06121D09] [F43B215E]

[CUETools log; Date: 01.11.2016 14:04:43; Version: 2.1.5]
[CTDB TOCID: xeDfapudUtj5AS5NTRgGgQ2HeAE-] found.
Track | CTDB Status
1 | (1/1) Accurately ripped
2 | (1/1) Accurately ripped
3 | (1/1) Accurately ripped
4 | (1/1) Accurately ripped
5 | (1/1) Accurately ripped
6 | (1/1) Accurately ripped
7 | (1/1) Accurately ripped
8 | (1/1) Accurately ripped
9 | (1/1) Accurately ripped
10 | (1/1) Accurately ripped
[AccurateRip ID: 000f07f9-007919ae-7909690a] found.
Track [ CRC | V2 ] Status
01 [53d73528|391e8229] (0+1/1) Accurately ripped
02 [f7100922|d881e9c8] (0+1/1) Accurately ripped
03 [81a02faf|c230ddbd] (0+1/1) Accurately ripped
04 [9178e896|91ca5568] (0+1/1) Accurately ripped
05 [4a17728b|0fb644db] (0+1/1) Accurately ripped
06 [c199b2b2|18e10ef5] (0+1/1) Accurately ripped
07 [bdb7f5e2|ebf43522] (0+1/1) Accurately ripped
08 [187e5fb1|67fd5a3b] (0+1/1) Accurately ripped
09 [62adba7d|5f981ba0] (0+1/1) Accurately ripped
10 [54ffe643|f85fdf65] (0+1/1) Accurately ripped

Track Peak [ CRC32 ] [W/O NULL] [ LOG ]
– 99,9 [0E4FF4EE] [F37646DA] CRC32
01 81,4 [5C3DF8FC] [24AEB559]
02 99,8 [755728AE] [F7A01C49]
03 99,9 [E9DA8AC0] [5FE53577]
04 99,9 [DA1E32E4] [82975B5F]
05 99,9 [DA99C32E] [548AE20A]
06 99,9 [822AB1BA] [C180DCF2]
07 99,9 [03007E0F] [2CF28E95]
08 99,9 [5B5E9F9C] [3C6CB043]
09 99,9 [B8D7533A] [0853BAD8]
10 99,9 [6EF141F6] [2E56823C]


Personnel

Charly García: keyboards, acoustic guitar, electric guitar, vocals
David Lebón: acoustic guitar, electric guitar, vocals
Pedro Aznar: keyboards, bass guitar, electric guitar, vocals, sax
Oscar Moro: drums and percussion

Serú Girán ‎– Yo No Quiero Volverme Tan Loco (2000) 2 CD

All thanks goes to the original releaser
=====