Subcategories

Roger Sessions - Complete Solo Works for Piano (Barry David Salwen)

Posted By: tapaz9
Roger Sessions - Complete Solo Works for Piano (Barry David Salwen)

Roger Sessions - Complete Solo Works for Piano (Barry David Salwen)
Classical | EAC: FLAC+Cue+Log | 1 Cd, Covers + Booklet | 253 Mb
Label: Albany - Date: 2005

I had the pleasure of hearing Barry David Salwen play a snippet of Roger Sessions' work live recently and was impressed. Barry brings to the piano a sense of both passion for the music and respect for the composer, ensuring a memorable, moving performance. If you can't hear Barry play live – and even if you can – check out this CD.
Stephen Kaczmarek @ Amazon.com
Tracks:

01. Piano Sonata No.1 (1927-30) [0:15:23.26]
02. From My Diary (1937-40) - 1. Poco adagio [0:02:49.23]
03. From My Diary (1937-40) - 2. Allegro con brio [0:02:39.57]
04. From My Diary (1937-40) - 3. Larghissimo e misterioso [0:01:47.37]
05. From My Diary (1937-40) - 4. Allegro pesante [0:01:17.46]
06. Piano Sonata No.2 (1946) - 1. Allegro con fuoco [0:03:41.37]
07. Piano Sonata No.2 (1946) - 2. Lento [0:04:31.32]
08. Piano Sonata No.2 (1946) - 3. Misurato e pesante [0:04:29.44]
09. Five Pieces for Piano (1974-5) - 1. Lento [0:02:36.13]
10. Five Pieces for Piano (1974-5) - 2. Con fuoco [0:02:16.00]
11. Five Pieces for Piano (1974-5) - 3. Andante, leggiero e grazioso [0:03:08.58]
12. Five Pieces for Piano (1974-5) - 4. Molto agitato [0:03:07.31]
13. Five Pieces for Piano (1974-5) - 5. Molto adagio [0:04:04.29]
14. Waltz (1978) [0:01:25.36]
15. Piano Sonata No.3 (1964-5) - 1. Adagio e misterioso - Sostenuto [0:07:34.73]
16. Piano Sonata No.3 (1964-5) - 2. Molto allegro e con fuoco [0:08:14.68]
17. Piano Sonata No.3 (1964-5) - 3. Lento e molto tranquillo [0:05:13.47]


Exact Audio Copy V1.0 beta 3 from 29. August 2011

EAC extraction logfile from 1. February 2013, 10:06

Roger Sessions / Complete Solo Works for Piano (Barry David Salwen)

Used drive : TSSTcorpCDDVDW SH-S223C Adapter: 2 ID: 1

Read mode : Secure
Utilize accurate stream : Yes
Defeat audio cache : Yes
Make use of C2 pointers : No

Read offset correction : 697
Overread into Lead-In and Lead-Out : No
Fill up missing offset samples with silence : Yes
Delete leading and trailing silent blocks : No
Null samples used in CRC calculations : Yes
Used interface : Native Win32 interface for Win NT & 2000

Used output format : User Defined Encoder
Selected bitrate : 896 kBit/s
Quality : High
Add ID3 tag : No
Command line compressor : C:\Program Files (x86)\Exact Audio Copy\FLAC\FLAC.EXE
Additional command line options : -V -0 -T "COMMENT=Ripped by Tapaz9" -T "artist=%artist%" -T "title=%title%" -T "album=%albumtitle%" -T "date=%year%" -T "tracknumber=%tracknr%" -T "genre=%genre%" %source%


TOC of the extracted CD

Track | Start | Length | Start sector | End sector
––––––––––––––––––––––––––––-
1 | 0:00.00 | 15:23.26 | 0 | 69250
2 | 15:23.26 | 2:49.23 | 69251 | 81948
3 | 18:12.49 | 2:39.57 | 81949 | 93930
4 | 20:52.31 | 1:47.37 | 93931 | 101992
5 | 22:39.68 | 1:17.46 | 101993 | 107813
6 | 23:57.39 | 3:41.37 | 107814 | 124425
7 | 27:39.01 | 4:31.32 | 124426 | 144782
8 | 32:10.33 | 4:29.44 | 144783 | 165001
9 | 36:40.02 | 2:36.13 | 165002 | 176714
10 | 39:16.15 | 2:16.00 | 176715 | 186914
11 | 41:32.15 | 3:08.58 | 186915 | 201072
12 | 44:40.73 | 3:07.31 | 201073 | 215128
13 | 47:48.29 | 4:04.29 | 215129 | 233457
14 | 51:52.58 | 1:25.36 | 233458 | 239868
15 | 53:18.19 | 7:34.73 | 239869 | 273991
16 | 60:53.17 | 8:14.68 | 273992 | 311109
17 | 69:08.10 | 5:13.47 | 311110 | 334631


Range status and errors

Selected range

Filename F:\Musique\Sessions, Roger\Sessions_WorksForSoloPiano\Roger Sessions - Complete Solo Works for Piano (Barry David Salwen).wav

Peak level 100.0 %
Extraction speed 14.3 X
Range quality 99.9 %
Copy CRC 67091368
Copy OK

No errors occurred

End of status report

==== Log checksum 2738D51584F63ADB62F3C8E6CAEF052DE61109565EB23E7B897CD92E686C69FE ====

No Mirrors and Torrent-uploads Please

See my classical digital download posts in the Vinyl & HR section or check out My Avax blog