Subcategories

Shanda & The Howlers - Trouble (2017)

Posted By: popsakov
Shanda & The Howlers - Trouble (2017)

Shanda & The Howlers - Trouble (2017)
EAC Rip | FLAC (Img) + Cue + Log ~ 278 Mb | MP3 CBR320 ~ 92 Mb
Scans (PNG, 400 dpi) ~ 62 Mb | RAR 5% Recovery
R&B, Blues, Rockabilly | Rum Bar Records #RUM 023

Shanda & The Howlers is a Rhythm & Blues revivalist band from Las Vegas, NV playing 50s-60s influenced R&B, Blues, & Soul reminiscent of the Stax Sound. Influences in their sound can be traced to such artists as Big Maybelle, Ruth Brown, Otis Redding, The Crystals, LaVern Baker, and James Brown. In the bands short history, they have played on bills with such legendary acts as The Blasters, Wanda Jackson and Rev. Horton Heat. Their debut album "Trouble" delivers 11 soul seared songs that speak directly of breakups, heartaches and moving on after surviving both. Lead singer Shanda Cisneros' raw vocals seem to claw their way through your speakers as the band locks tight behind her with gritty saxophone riffs, a Motown inspired rhythm section and the occasional slide guitar. Produced by John Fallon of 80s/90s underground Irish band, The Steppes.
***************

Shanda & The Howlers - Trouble (2017)

Track List:

01. Keep Telling Me [2:33]
02. She Don't Want A Man [3:55]
03. Trouble's Out To Play [3:10]
04. Don't Need Your Love [2:38]
05. Born With A Broken Heart [4:18]
06. Don't Wait Up [2:44]
07. Stay Awhile [3:58]
08. Mind Made Up [3:19]
09. Li'l Operator [3:34]
10. You're Gonna Cry [3:37]
11. Bad Love [4:29]

Exact Audio Copy V1.0 beta 3 from 29. August 2011

EAC extraction logfile from 18. August 2017, 18:04

Shanda & The Howlers / Trouble

Used drive : PIONEER BD-RW BDR-TD03 Adapter: 0 ID: 1

Read mode : Secure
Utilize accurate stream : Yes
Defeat audio cache : Yes
Make use of C2 pointers : No

Read offset correction : 667
Overread into Lead-In and Lead-Out : No
Fill up missing offset samples with silence : Yes
Delete leading and trailing silent blocks : No
Null samples used in CRC calculations : Yes
Used interface : Native Win32 interface for Win NT & 2000

Used output format : User Defined Encoder
Selected bitrate : 768 kBit/s
Quality : High
Add ID3 tag : No
Command line compressor : C:\Program Files (x86)\Exact Audio Copy\FLAC\FLAC.EXE
Additional command line options : -6 -V -T "ARTIST=%artist%" -T "TITLE=%title%" -T "ALBUM=%albumtitle%" -T "DATE=%year%" -T "TRACKNUMBER=%tracknr%" -T "GENRE=%genre%" -T "COMMENT=%comment%" -T "BAND=%albuminterpret%" -T "ALBUMARTIST=%albuminterpret%" -T "COMPOSER=%composer%" %haslyrics%–tag-from-file=LYRICS="%lyricsfile%"%haslyrics% -T "DISCNUMBER=%cdnumber%" -T "TOTALDISCS=%totalcds%" -T "TOTALTRACKS=%numtracks%" %hascover%–picture="%coverfile%"%hascover% %source% -o %dest%


TOC of the extracted CD

Track | Start | Length | Start sector | End sector
––––––––––––––––––––––––––––-
1 | 0:00.00 | 2:33.18 | 0 | 11492
2 | 2:33.18 | 3:54.54 | 11493 | 29096
3 | 6:27.72 | 3:09.55 | 29097 | 43326
4 | 9:37.52 | 2:38.28 | 43327 | 55204
5 | 12:16.05 | 4:17.58 | 55205 | 74537
6 | 16:33.63 | 2:44.27 | 74538 | 86864
7 | 19:18.15 | 3:58.08 | 86865 | 104722
8 | 23:16.23 | 3:19.27 | 104723 | 119674
9 | 26:35.50 | 3:34.03 | 119675 | 135727
10 | 30:09.53 | 3:36.44 | 135728 | 151971
11 | 33:46.22 | 4:29.02 | 151972 | 172148


Range status and errors

Selected range

Filename C:\Users\Deris\Desktop\ShandaHowl\Shanda & The Howlers - Trouble.wav

Peak level 98.0 %
Extraction speed 4.3 X
Range quality 100.0 %
Test CRC 7CD6C845
Copy CRC 7CD6C845
Copy OK

No errors occurred


AccurateRip summary

Track 1 not present in database
Track 2 not present in database
Track 3 not present in database
Track 4 not present in database
Track 5 not present in database
Track 6 not present in database
Track 7 not present in database
Track 8 not present in database
Track 9 not present in database
Track 10 not present in database
Track 11 not present in database

None of the tracks are present in the AccurateRip database

End of status report

–– CUETools DB Plugin V2.1.3

[CTDB TOCID: UqHEphhhsFQAWIe2PXcFFw.W9Ic-] disk not present in database, Submit result: UqHEphhhsFQAWIe2PXcFFw.W9Ic- has been uploaded


==== Log checksum 66E3C419C8B32013907B35C87E7D1CA29465BE8832E9978EBCD942B8AA2566F0 ====

foobar2000 1.2.6 / Dynamic Range Meter 1.1.1
log date: 2017-08-19 21:21:13

––––––––––––––––––––––––––––––––––––––––
Analyzed: Shanda & The Howlers / Trouble
––––––––––––––––––––––––––––––––––––––––

DR Peak RMS Duration Track
––––––––––––––––––––––––––––––––––––––––
DR6 -0.17 dB -6.73 dB 2:33 01-Keep Telling Me
DR5 -0.25 dB -6.29 dB 3:55 02-She Don't Want A Man
DR7 -0.22 dB -8.76 dB 3:10 03-Trouble's Out To Play
DR7 -0.25 dB -8.64 dB 2:38 04-Don't Need Your Love
DR6 -0.25 dB -8.00 dB 4:18 05-Born With A Broken Heart
DR4 -0.25 dB -5.18 dB 2:44 06-Don't Wait Up
DR6 -0.25 dB -7.71 dB 3:58 07-Stay Awhile
DR5 -0.22 dB -6.39 dB 3:19 08-Mind Made Up
DR6 -0.25 dB -7.26 dB 3:34 09-Li'l Operator
DR7 -0.22 dB -8.86 dB 3:37 10-You're Gonna Cry
DR6 -0.25 dB -7.66 dB 4:29 11-Bad Love
––––––––––––––––––––––––––––––––––––––––

Number of tracks: 11
Official DR value: DR6

Samplerate: 44100 Hz
Channels: 2
Bits per sample: 16
Bitrate: 969 kbps
Codec: FLAC
================================================================================

[CUETools log; Date: 19.08.2017 21:21:16; Version: 2.1.5]
[CTDB TOCID: UqHEphhhsFQAWIe2PXcFFw.W9Ic-] found.
Track | CTDB Status
1 | (1/1) Accurately ripped
2 | (1/1) Accurately ripped
3 | (1/1) Accurately ripped
4 | (1/1) Accurately ripped
5 | (1/1) Accurately ripped
6 | (1/1) Accurately ripped
7 | (1/1) Accurately ripped
8 | (1/1) Accurately ripped
9 | (1/1) Accurately ripped
10 | (1/1) Accurately ripped
11 | (1/1) Accurately ripped
[AccurateRip ID: 000f06c4-00839981-a908f70b] disk not present in database.

Track Peak [ CRC32 ] [W/O NULL] [ LOG ]
– 98,0 [7CD6C845] [CEC7DB33] CRC32
01 98,0 [F56ED502] [EFCAD757]
02 97,1 [C55B2799] [6AB14BF4]
03 97,4 [406AC15E] [CDF0F427]
04 97,1 [3F055867] [33BAEB52]
05 97,1 [835EA2E1] [10062F3F]
06 97,1 [615530FE] [07895A30]
07 97,1 [D553E117] [C2A8EB05]
08 97,4 [3FAA52AF] [2F377BA5]
09 97,1 [4EBB01AC] [6796F112]
10 97,4 [ED0FFEAC] [0FDD7DB8]
11 97,1 [57629E7F] [F91AC4C7]

Shanda & The Howlers - Trouble (2017)

All thanks go to Boris1

>>> My Blog <<<

Download from icerbox.com: