Subcategories
Tags
Language
Tags

Sharon Isbin - J.S. Bach: Complete Lute Suites (2003)

Posted By: popsakov
Sharon Isbin - J.S. Bach: Complete Lute Suites (2003)

Sharon Isbin - J.S. Bach: Complete Lute Suites (2003)
EAC Rip | FLAC (Tracks) + Cue + m3u + Log ~ 258 Mb | MP3 CBR320 ~ 189 Mb
Full Scans ~ 65 Mb | 01:18:29 | RAR 5% Recovery
Classical, Baroque, Guitar | Virgin Classics #7243 5 62198 2 3

Sharon Isbin is a multiple Grammy Award winning American classical guitarist and the founding director of the guitar department at the Juilliard School. Described by the Boston Globe's Michael Manning as a musician who plays "beyond virtuosity," guitarist Sharon Isbin has been a consistent challenge for critics, who struggle to find the right superlative that would do justice to her exquisite playing. A Renaissance woman of the guitar, Isbin performs worldwide at famous venues, commissions new works from distinguished American composers (more than any other guitarist) for her instruments, collaborates with a wide variety of musicians, and indefatigably searches for new music to play.

***************

Track List:

Suite in E major for Lute, BWV 1006a
01. I. Prelude [04:24]
02. II. Loure [02:45]
03. III. Gavotte en rondeau [03:11]
04. IV. Menuet I & II (da capo Menuet I) [02:57]
05. V. Bourrée [01:56]
06. VI. Gigue [02:05]
Suite in G minor for Lute (performed in A minor), BWV 995
07. I. Prelude [06:45]
08. II. Allemande [03:31]
09. III. Courante [02:07]
10. IV. Sarabande [04:15]
11. V. Gavotte I & II (en rondeau) [02:41]
12. VI. Gigue [02:22]
Suite in E minor for Lute, BWV 996
13. I. Praeludio: Passaggio [02:58]
14. II. Allemande [03:09]
15. III. Courante [02:24]
16. IV. Sarabande [04:46]
17. V. Bourrée [01:20]
18. VI. Gigue [02:58]
Suite in C minor for Lute (performed in A minor), BWV 997
19. I. Prelude [03:10]
20. II. Fugue [08:13]
21. III. Sarabande [05:28]
22. IV. Gigue [02:43]
23. V. Double [02:42]

Exact Audio Copy V1.3 from 2. September 2016

EAC extraction logfile from 2. July 2020, 2:42

Sharon Isbin (guitar) / J S Bach~ Complete Lute Suites

Used drive : ASUS BW-12D1S-U Adapter: 1 ID: 0

Read mode : Secure
Utilize accurate stream : Yes
Defeat audio cache : Yes
Make use of C2 pointers : No

Read offset correction : 667
Overread into Lead-In and Lead-Out : No
Fill up missing offset samples with silence : Yes
Delete leading and trailing silent blocks : No
Null samples used in CRC calculations : Yes
Used interface : Native Win32 interface for Win NT & 2000
Gap handling : Appended to previous track

Used output format : User Defined Encoder
Selected bitrate : 1024 kBit/s
Quality : High
Add ID3 tag : No
Command line compressor : C:\Program Files (x86)\Exact Audio Copy\FLAC\FLAC.EXE
Additional command line options : -V -8 -T "Genre=%genre%" -T "Artist=%artist%" -T "Title=%title%" -T "Album=%albumtitle%" -T "Date=%year%" -T "Tracknumber=%tracknr%" -T "Comment=%comment%" %source%


TOC of the extracted CD

Track | Start | Length | Start sector | End sector
––––––––––––––––––––––––––––-
1 | 0:00.00 | 4:23.45 | 0 | 19769
2 | 4:23.45 | 2:44.68 | 19770 | 32137
3 | 7:08.38 | 3:10.65 | 32138 | 46452
4 | 10:19.28 | 2:56.69 | 46453 | 59721
5 | 13:16.22 | 1:55.41 | 59722 | 68387
6 | 15:11.63 | 2:05.17 | 68388 | 77779
7 | 17:17.05 | 6:45.03 | 77780 | 108157
8 | 24:02.08 | 3:31.02 | 108158 | 123984
9 | 27:33.10 | 2:06.55 | 123985 | 133489
10 | 29:39.65 | 4:14.65 | 133490 | 152604
11 | 33:54.55 | 2:41.18 | 152605 | 164697
12 | 36:35.73 | 2:22.37 | 164698 | 175384
13 | 38:58.35 | 2:58.35 | 175385 | 188769
14 | 41:56.70 | 3:08.53 | 188770 | 202922
15 | 45:05.48 | 2:23.52 | 202923 | 213699
16 | 47:29.25 | 4:46.10 | 213700 | 235159
17 | 52:15.35 | 1:20.19 | 235160 | 241178
18 | 53:35.54 | 2:58.31 | 241179 | 254559
19 | 56:34.10 | 3:09.48 | 254560 | 268782
20 | 59:43.58 | 8:12.47 | 268783 | 305729
21 | 67:56.30 | 5:28.30 | 305730 | 330359
22 | 73:24.60 | 2:42.60 | 330360 | 342569
23 | 76:07.45 | 2:42.02 | 342570 | 354721


Track 1

Filename E:\Torrents of Autumn\Isbin, Sharon [2003] J S Bach~ Complete Lute Suites\01. Suite in E major [BWV 1006a]~ I. Prelude.wav

Pre-gap length 0:00:02.00

Peak level 31.9 %
Extraction speed 1.7 X
Track quality 99.9 %
Test CRC 03893B1B
Copy CRC 03893B1B
Copy OK

Track 2

Filename E:\Torrents of Autumn\Isbin, Sharon [2003] J S Bach~ Complete Lute Suites\02. Suite in E major [BWV 1006a]~ II. Loure.wav

Peak level 23.8 %
Extraction speed 1.9 X
Track quality 100.0 %
Test CRC 7C404D52
Copy CRC 7C404D52
Copy OK

Track 3

Filename E:\Torrents of Autumn\Isbin, Sharon [2003] J S Bach~ Complete Lute Suites\03. Suite in E major [BWV 1006a]~ III. Gavotte en rondeau.wav

Peak level 29.6 %
Extraction speed 1.8 X
Track quality 99.9 %
Test CRC 701ED9BE
Copy CRC 701ED9BE
Copy OK

Track 4

Filename E:\Torrents of Autumn\Isbin, Sharon [2003] J S Bach~ Complete Lute Suites\04. Suite in E major [BWV 1006a]~ IV. Menuet I & II (da capo Menuet I).wav

Peak level 25.2 %
Extraction speed 1.8 X
Track quality 99.9 %
Test CRC 903419E4
Copy CRC 903419E4
Copy OK

Track 5

Filename E:\Torrents of Autumn\Isbin, Sharon [2003] J S Bach~ Complete Lute Suites\05. Suite in E major [BWV 1006a]~ V. Bourrée.wav

Peak level 23.4 %
Extraction speed 1.6 X
Track quality 99.9 %
Test CRC 5CB28FCC
Copy CRC 5CB28FCC
Copy OK

Track 6

Filename E:\Torrents of Autumn\Isbin, Sharon [2003] J S Bach~ Complete Lute Suites\06. Suite in E major [BWV 1006a]~ VI. Gigue.wav

Peak level 37.9 %
Extraction speed 2.1 X
Track quality 100.0 %
Test CRC 3AF23AB3
Copy CRC 3AF23AB3
Copy OK

Track 7

Filename E:\Torrents of Autumn\Isbin, Sharon [2003] J S Bach~ Complete Lute Suites\07. Suite in G minor (performed in A minor) [BWV 995]~ I. Prelude~.wav

Pre-gap length 0:00:06.61

Peak level 25.0 %
Extraction speed 2.5 X
Track quality 99.9 %
Test CRC 6AAAA2BA
Copy CRC 6AAAA2BA
Copy OK

Track 8

Filename E:\Torrents of Autumn\Isbin, Sharon [2003] J S Bach~ Complete Lute Suites\08. Suite in G minor (performed in A minor) [BWV 995]~ II. Allemande.wav

Peak level 18.9 %
Extraction speed 2.6 X
Track quality 100.0 %
Test CRC 04F2F628
Copy CRC 04F2F628
Copy OK

Track 9

Filename E:\Torrents of Autumn\Isbin, Sharon [2003] J S Bach~ Complete Lute Suites\09. Suite in G minor (performed in A minor) [BWV 995]~ III. Courante.wav

Peak level 25.5 %
Extraction speed 2.4 X
Track quality 100.0 %
Test CRC 0D169BDB
Copy CRC 0D169BDB
Copy OK

Track 10

Filename E:\Torrents of Autumn\Isbin, Sharon [2003] J S Bach~ Complete Lute Suites\10. Suite in G minor (performed in A minor) [BWV 995]~ IV. Sarabande.wav

Peak level 19.7 %
Extraction speed 2.9 X
Track quality 100.0 %
Test CRC 37DAA1EE
Copy CRC 37DAA1EE
Copy OK

Track 11

Filename E:\Torrents of Autumn\Isbin, Sharon [2003] J S Bach~ Complete Lute Suites\11. Suite in G minor (performed in A minor) [BWV 995]~ V. Gavotte I & II (en rondeau).wav

Peak level 30.2 %
Extraction speed 2.7 X
Track quality 100.0 %
Test CRC 0BDD0FBD
Copy CRC 0BDD0FBD
Copy OK

Track 12

Filename E:\Torrents of Autumn\Isbin, Sharon [2003] J S Bach~ Complete Lute Suites\12. Suite in G minor (performed in A minor) [BWV 995]~ VI. Gigue.wav

Peak level 32.4 %
Extraction speed 2.7 X
Track quality 100.0 %
Test CRC FA6DF8C3
Copy CRC FA6DF8C3
Copy OK

Track 13

Filename E:\Torrents of Autumn\Isbin, Sharon [2003] J S Bach~ Complete Lute Suites\13. Suite in E minor [BWV 996]~ I. Praeludio~ Passaggio.wav

Pre-gap length 0:00:07.21

Peak level 42.0 %
Extraction speed 2.9 X
Track quality 100.0 %
Test CRC 2F97E0DF
Copy CRC 2F97E0DF
Copy OK

Track 14

Filename E:\Torrents of Autumn\Isbin, Sharon [2003] J S Bach~ Complete Lute Suites\14. Suite in E minor [BWV 996]~ II. Allemande.wav

Peak level 20.6 %
Extraction speed 3.0 X
Track quality 100.0 %
Test CRC 283F9184
Copy CRC 283F9184
Copy OK

Track 15

Filename E:\Torrents of Autumn\Isbin, Sharon [2003] J S Bach~ Complete Lute Suites\15. Suite in E minor [BWV 996]~ III. Courante.wav

Peak level 34.7 %
Extraction speed 2.9 X
Track quality 100.0 %
Test CRC A676FA6D
Copy CRC A676FA6D
Copy OK

Track 16

Filename E:\Torrents of Autumn\Isbin, Sharon [2003] J S Bach~ Complete Lute Suites\16. Suite in E minor [BWV 996]~ IV. Sarabande.wav

Peak level 31.1 %
Extraction speed 3.0 X
Track quality 99.9 %
Test CRC 7AF92E1E
Copy CRC 7AF92E1E
Copy OK

Track 17

Filename E:\Torrents of Autumn\Isbin, Sharon [2003] J S Bach~ Complete Lute Suites\17. Suite in E minor [BWV 996]~ V. Bourrée.wav

Peak level 30.8 %
Extraction speed 2.6 X
Track quality 100.0 %
Test CRC 0AF84D1A
Copy CRC 0AF84D1A
Copy OK

Track 18

Filename E:\Torrents of Autumn\Isbin, Sharon [2003] J S Bach~ Complete Lute Suites\18. Suite in E minor [BWV 996]~ VI. Gigue.wav

Peak level 41.5 %
Extraction speed 3.3 X
Track quality 100.0 %
Test CRC 0B121B01
Copy CRC 0B121B01
Copy OK

Track 19

Filename E:\Torrents of Autumn\Isbin, Sharon [2003] J S Bach~ Complete Lute Suites\19. Suite in C minor (performed in A minor) [BWV 997]~ I. Prelude.wav

Pre-gap length 0:00:06.28

Peak level 44.7 %
Extraction speed 3.3 X
Track quality 100.0 %
Test CRC 591EB867
Copy CRC 591EB867
Copy OK

Track 20

Filename E:\Torrents of Autumn\Isbin, Sharon [2003] J S Bach~ Complete Lute Suites\20. Suite in C minor (performed in A minor) [BWV 997]~ II. Fugue.wav

Peak level 55.6 %
Extraction speed 3.8 X
Track quality 100.0 %
Test CRC 4BFC34A5
Copy CRC 4BFC34A5
Copy OK

Track 21

Filename E:\Torrents of Autumn\Isbin, Sharon [2003] J S Bach~ Complete Lute Suites\21. Suite in C minor (performed in A minor) [BWV 997]~ III. Sarabande.wav

Peak level 33.3 %
Extraction speed 3.8 X
Track quality 100.0 %
Test CRC 5A9B7258
Copy CRC 5A9B7258
Copy OK

Track 22

Filename E:\Torrents of Autumn\Isbin, Sharon [2003] J S Bach~ Complete Lute Suites\22. Suite in C minor (performed in A minor) [BWV 997]~ IV. Gigue.wav

Peak level 41.0 %
Extraction speed 3.5 X
Track quality 100.0 %
Test CRC 9D83F620
Copy CRC 9D83F620
Copy OK

Track 23

Filename E:\Torrents of Autumn\Isbin, Sharon [2003] J S Bach~ Complete Lute Suites\23. Suite in C minor (performed in A minor) [BWV 997]~ V. Double.wav

Peak level 46.7 %
Extraction speed 3.0 X
Track quality 99.9 %
Test CRC CD96FED3
Copy CRC CD96FED3
Copy OK

No errors occurred

End of status report

–– CUETools DB Plugin V2.1.6

[CTDB TOCID: 6_RrjV5NxbqWzzTmAoRt345HGrc-] found
Submit result: 6_RrjV5NxbqWzzTmAoRt345HGrc- has been confirmed
Track | CTDB Status
1 | (26/26) Accurately ripped
2 | (26/26) Accurately ripped
3 | (26/26) Accurately ripped
4 | (26/26) Accurately ripped
5 | (26/26) Accurately ripped
6 | (26/26) Accurately ripped
7 | (26/26) Accurately ripped
8 | (26/26) Accurately ripped
9 | (26/26) Accurately ripped
10 | (26/26) Accurately ripped
11 | (26/26) Accurately ripped
12 | (26/26) Accurately ripped
13 | (26/26) Accurately ripped
14 | (26/26) Accurately ripped
15 | (26/26) Accurately ripped
16 | (25/26) Accurately ripped
17 | (26/26) Accurately ripped
18 | (26/26) Accurately ripped
19 | (26/26) Accurately ripped
20 | (26/26) Accurately ripped
21 | (26/26) Accurately ripped
22 | (26/26) Accurately ripped
23 | (25/26) Accurately ripped


==== Log checksum 90CCAE91F7E9CA89966B657DF1C1681013BEC496420B68F692FA335152A1D966 ====

Sharon Isbin - J.S. Bach: Complete Lute Suites (2003)


All thanks go to DoobieBro

>>> My Blog <<<

DOWNLOAD: