Subcategories
Tags
Language
Tags

Shelter featuring Andy Bell - iPop (2014) [3CD Deluxe Edition]

Posted By: gribovar
Shelter featuring Andy Bell - iPop (2014) [3CD Deluxe Edition]

Shelter featuring Andy Bell - iPop (2014) [3CD Deluxe Edition]
EAC Rip | FLAC (tracks+.cue+log) - 1,35 GB | MP3 CBR 320 kbps (LAME 3.93) - 430 MB | Covers - 68 MB
Genre: Synthpop | RAR 3% Rec. | Label: Ministry Of Pop (MPOCD12001)

"iPop" (written & produced by dance duo Shelter) is Andy Bell’s (Erasure) 3rd solo album after Manhattan Clique's "Electric Blue" and Pascal Gabriel's "Non-Stop". The album was written and recorded by Shelter - and released on their Ministry of Pop label - but includes two tracks (‘Stars’ and ‘Electrostatic’) which were written in collaboration with Andy Bell, and one track, "Lift Me Up", which also features Vince Clarke (Erasure, Yazoo, Depeche Mode).
CD 1 Tracklist:
01. Beautiful (DJ Jekyll's Pianissimo Mix)
02. Lift Me Up (DJ Jekyll's VC Album Mix) (Feat. Vince Clarke)
03. Stars (DJ Jekyll's Radio Mix)
04. Destination (Matt Pop's Arabian Nights Mix) (Feat. The Alpha Belles)
05. Electrostatic (DJ Jekyll's Rapture Mix)
06. Go Hard Or Go Home (Matt Pop's Disco Mix) (3:20)
07. Friend (DJ Jekyll's Statepop Mix) (Feat. LMTS Inc)
08. In Somebody's Arms (Matt Pop's Ode De Moroder Mix)
09. Beautiful (DJ Ram's Cute Mix)
10. Beautiful (DJ Jekyll's Acoustic Mix)
11. Beautiful (DJ Jekyll's Black Key Angst Remix)
12. Lift Me Up (DJ Jekyll's Extended Mix) (Feat. Vince Clarke)
13. Stars (DJ Ram's Infinity & Beyond Extended Mix)
14. Stars (Don Mueller's Cosmic Arcadia Mix)
15. Electrostatic (DJ Jekyll's Deep Space Voyager Mix)

Total time: 01:03:19

CD 2 Tracklist:
16. Electrostatic (DJ Jekyll's Chemical Mix Mix)
17. In Somebody's Arms (DJ Jekyll's Homeward Bound Fantasia Mix)
18. Beautiful (Don Mueller's Single Mix)
19. Stars (Airjax Radio Mix)
20. Electrostatic (DJ Jekyll's Dr & Mr Mix)
21. Go Hard Or Go Home (DJ Jekyll's Detroit Diva Mix)
22. Friend (DJ Jekyll's Friendship Day Mix) (Feat. LMTS Inc)
23. In Somebody's Arms (DJ Jekyll's Electro-Lullaby Mix)
24. Beautiful (Matt Pop's Radio Mix)
25. Stars (Sinestar's Kram Mix Homage Remix)
26. Electrostatic (Rob Dust's Radio Edit)
27. Beautiful (DJ Jekyll's Darker Than Wagner Mix)
28. Friend (DJ Jekyll's Chillax Edit) (Feat. LMTS Inc)
29. Beautiful (Matt Pop's Extended Club Mix) (7:21)

Total time: 57:28

CD 3 Tracklist:
30. Stars (Airjax Extended Club Mix)
31. Electrostatic (Rob Dust's Extended Remix)
32. Go Hard Or Go Home (Alignment North's End Mix)
33. Destination (Destination's Meteoric Mix) (Feat. The Alpha Belles)
34. In Somebody's Arms (Northern Kind Mix)
35. Beautiful (DJ Ram's Gorgeous Mix)
36. Beautiful (Mesh Mix)
37. Electrostatic (DJ Jekyll's Down & Dirty with the Latinogod Mix)
38. Electrostatic (People Theatre's Short-circuit Mix)
39 Go Hard Or Go Home (DJ Jekyll's Don't Stop The Beat Mix)
40. Beautiful (Shelter's Violet Flame Tour Mix)

Total time: 57:24

Exact Audio Copy V1.3 from 2. September 2016

EAC extraction logfile from 11. March 2019, 1:50

Shelter feat. Andy Bell / iPop (Deluxe edition) Vol.1

Used drive : PIONEER DVD-RW DVR-221L Adapter: 1 ID: 1

Read mode : Secure
Utilize accurate stream : Yes
Defeat audio cache : Yes
Make use of C2 pointers : No

Read offset correction : 6
Overread into Lead-In and Lead-Out : No
Fill up missing offset samples with silence : Yes
Delete leading and trailing silent blocks : No
Null samples used in CRC calculations : Yes
Used interface : Native Win32 interface for Win NT & 2000
Gap handling : Appended to previous track

Used output format : User Defined Encoder
Selected bitrate : 1024 kBit/s
Quality : High
Add ID3 tag : No
Command line compressor : C:\Program Files (x86)\Exact Audio Copy\FLAC\FLAC.EXE
Additional command line options : -6 -V -T "COMMENT=Ripped by RRCLtd for RRC" -T "ARTIST=%artist%" -T "TITLE=%title%" -T "ALBUM=%albumtitle%" -T "DATE=%year%" -T "TRACKNUMBER=%tracknr%" -T "GENRE=%genre%" -T "BAND=%albuminterpret%" -T "ALBUMARTIST=%albuminterpret%" -T "COMPOSER=%composer%" %haslyrics%–tag-from-file=LYRICS="%lyricsfile%"%haslyrics% -T "DISCNUMBER=%cdnumber%" -T "TOTALDISCS=%totalcds%" -T "TOTALTRACKS=%numtracks%" %hascover%–picture="%coverfile%"%hascover% %source%


TOC of the extracted CD

Track | Start | Length | Start sector | End sector
––––––––––––––––––––––––––––-
1 | 0:00.00 | 4:42.47 | 0 | 21196
2 | 4:42.47 | 4:27.00 | 21197 | 41221
3 | 9:09.47 | 3:37.23 | 41222 | 57519
4 | 12:46.70 | 3:54.54 | 57520 | 75123
5 | 16:41.49 | 3:56.05 | 75124 | 92828
6 | 20:37.54 | 3:19.60 | 92829 | 107813
7 | 23:57.39 | 3:29.49 | 107814 | 123537
8 | 27:27.13 | 3:13.59 | 123538 | 138071
9 | 30:40.72 | 4:44.59 | 138072 | 159430
10 | 35:25.56 | 4:14.35 | 159431 | 178515
11 | 39:40.16 | 4:22.74 | 178516 | 198239
12 | 44:03.15 | 6:53.68 | 198240 | 229282
13 | 50:57.08 | 4:02.12 | 229283 | 247444
14 | 54:59.20 | 4:00.50 | 247445 | 265494
15 | 58:59.70 | 4:19.40 | 265495 | 284959


Track 1

Filename E:\RRCLtd Rip\01-Beautiful (DJ Jekyll's Pianissimo Mix).wav

Pre-gap length 0:00:02.00

Peak level 100.0 %
Extraction speed 2.9 X
Track quality 100.0 %
Test CRC 4D92B89D
Copy CRC 4D92B89D
Accurately ripped (confidence 2) [36A1C5E5] (AR v2)
Copy OK

Track 2

Filename E:\RRCLtd Rip\02-Lift Me Up (DJ Jekyll's VC Album Mix).wav

Pre-gap length 0:00:02.00

Peak level 100.0 %
Extraction speed 3.2 X
Track quality 100.0 %
Test CRC 4738740A
Copy CRC 4738740A
Accurately ripped (confidence 2) [88567446] (AR v2)
Copy OK

Track 3

Filename E:\RRCLtd Rip\03-Stars (DJ Jekyll's Radio Mix).wav

Pre-gap length 0:00:02.00

Peak level 100.0 %
Extraction speed 3.4 X
Track quality 100.0 %
Test CRC 94F5A963
Copy CRC 94F5A963
Accurately ripped (confidence 2) [1E4ABD42] (AR v2)
Copy OK

Track 4

Filename E:\RRCLtd Rip\04-Destination (Matt Pop's Arabian Nights Mix).wav

Pre-gap length 0:00:02.00

Peak level 100.0 %
Extraction speed 2.8 X
Track quality 99.9 %
Test CRC 135B35CD
Copy CRC 135B35CD
Accurately ripped (confidence 2) [25EA3818] (AR v2)
Copy OK

Track 5

Filename E:\RRCLtd Rip\05-Electrostatic (DJ Jekyll's Rapture Mix).wav

Pre-gap length 0:00:02.00

Peak level 100.0 %
Extraction speed 3.0 X
Track quality 99.9 %
Test CRC 30760562
Copy CRC 30760562
Accurately ripped (confidence 2) [39475BD5] (AR v2)
Copy OK

Track 6

Filename E:\RRCLtd Rip\06-Go Hard Or Go Home (Matt Pop's Disco Mix).wav

Pre-gap length 0:00:02.00

Peak level 100.0 %
Extraction speed 3.9 X
Track quality 100.0 %
Test CRC 0BB2E46C
Copy CRC 0BB2E46C
Accurately ripped (confidence 2) [0FA836AC] (AR v2)
Copy OK

Track 7

Filename E:\RRCLtd Rip\07-Friend (DJ Jekyll's Statepop Mix).wav

Pre-gap length 0:00:02.00

Peak level 100.0 %
Extraction speed 4.2 X
Track quality 100.0 %
Test CRC A47B07F4
Copy CRC A47B07F4
Accurately ripped (confidence 2) [2901C355] (AR v2)
Copy OK

Track 8

Filename E:\RRCLtd Rip\08-In Somebody's Arms (Matt Pop's Ode De Moroder Mix).wav

Pre-gap length 0:00:02.00

Peak level 100.0 %
Extraction speed 4.2 X
Track quality 100.0 %
Test CRC 102C90F7
Copy CRC 102C90F7
Accurately ripped (confidence 2) [F63A30AA] (AR v2)
Copy OK

Track 9

Filename E:\RRCLtd Rip\09-Beautiful (DJ Ram's Cute Mix).wav

Pre-gap length 0:00:02.00

Peak level 100.0 %
Extraction speed 4.7 X
Track quality 100.0 %
Test CRC 84DD7FC3
Copy CRC 84DD7FC3
Accurately ripped (confidence 1) [2493D450] (AR v2)
Copy OK

Track 10

Filename E:\RRCLtd Rip\10-Beautiful (DJ Jekyll's Acoustic Mix).wav

Pre-gap length 0:00:02.00

Peak level 100.0 %
Extraction speed 4.8 X
Track quality 100.0 %
Test CRC EB9428D1
Copy CRC EB9428D1
Accurately ripped (confidence 1) [20F1B492] (AR v2)
Copy OK

Track 11

Filename E:\RRCLtd Rip\11-Beautiful (DJ Jekyll's Black Key Angst Remix).wav

Pre-gap length 0:00:02.00

Peak level 100.0 %
Extraction speed 5.0 X
Track quality 100.0 %
Test CRC E7DAD68A
Copy CRC E7DAD68A
Accurately ripped (confidence 1) [30A9A050] (AR v2)
Copy OK

Track 12

Filename E:\RRCLtd Rip\12-Lift Me Up (DJ Jekyll's Extended Mix).wav

Pre-gap length 0:00:02.00

Peak level 100.0 %
Extraction speed 5.5 X
Track quality 100.0 %
Test CRC 5F6DCDF9
Copy CRC 5F6DCDF9
Accurately ripped (confidence 1) [67105AB6] (AR v2)
Copy OK

Track 13

Filename E:\RRCLtd Rip\13-Stars (DJ Ram's Infinity & Beyond Extended Mix).wav

Pre-gap length 0:00:02.00

Peak level 100.0 %
Extraction speed 5.5 X
Track quality 100.0 %
Test CRC 6A2E71BC
Copy CRC 6A2E71BC
Accurately ripped (confidence 1) [F20489B0] (AR v2)
Copy OK

Track 14

Filename E:\RRCLtd Rip\14-Stars (Don Mueller's Cosmic Arcadia Mix).wav

Pre-gap length 0:00:02.00

Peak level 100.0 %
Extraction speed 4.3 X
Track quality 99.9 %
Test CRC 42907A1C
Copy CRC 42907A1C
Accurately ripped (confidence 1) [CCD03834] (AR v2)
Copy OK

Track 15

Filename E:\RRCLtd Rip\15-Electrostatic (DJ Jekyll's Deep Space Voyager Mix).wav

Pre-gap length 0:00:02.00

Peak level 100.0 %
Extraction speed 5.7 X
Track quality 100.0 %
Test CRC 1017B998
Copy CRC 1017B998
Accurately ripped (confidence 1) [1CA9734C] (AR v2)
Copy OK


All tracks accurately ripped

No errors occurred

End of status report

–– CUETools DB Plugin V2.1.6

[CTDB TOCID: lxpNDuOGtIKSsqbdOx5.6v.lGHA-] found
Submit result: already submitted
Track | CTDB Status
1 | (2/2) Accurately ripped
2 | (2/2) Accurately ripped
3 | (2/2) Accurately ripped
4 | (2/2) Accurately ripped
5 | (2/2) Accurately ripped
6 | (2/2) Accurately ripped
7 | (2/2) Accurately ripped
8 | (2/2) Accurately ripped
9 | (2/2) Accurately ripped
10 | (2/2) Accurately ripped
11 | (2/2) Accurately ripped
12 | (2/2) Accurately ripped
13 | (2/2) Accurately ripped
14 | (2/2) Accurately ripped
15 | (2/2) Accurately ripped


==== Log checksum FC8EA9C2B97E357D2610274C3C6E3EDD77DFA1C20ECEF4DE10487389270A791A ====

[CUETools log; Date: 04.05.2020 21:33:36; Version: 2.1.4]
[CTDB TOCID: lxpNDuOGtIKSsqbdOx5.6v.lGHA-] found.
Track | CTDB Status
1 | (3/3) Accurately ripped
2 | (3/3) Accurately ripped
3 | (3/3) Accurately ripped
4 | (3/3) Accurately ripped
5 | (3/3) Accurately ripped
6 | (3/3) Accurately ripped
7 | (3/3) Accurately ripped
8 | (3/3) Accurately ripped
9 | (3/3) Accurately ripped
10 | (3/3) Accurately ripped
11 | (3/3) Accurately ripped
12 | (3/3) Accurately ripped
13 | (3/3) Accurately ripped
14 | (3/3) Accurately ripped
15 | (3/3) Accurately ripped
[AccurateRip ID: 0021e28e-018119b9-c80ed70f] found.
Track [ CRC | V2 ] Status
01 [8520a3e6|36a1c5e5] (0+2/2) Accurately ripped
02 [5a371303|88567446] (0+2/2) Accurately ripped
03 [7415b73c|1e4abd42] (0+2/2) Accurately ripped
04 [494afae1|25ea3818] (0+2/2) Accurately ripped
05 [607602e0|39475bd5] (0+2/2) Accurately ripped
06 [b73f8bad|0fa836ac] (0+2/2) Accurately ripped
07 [20117ae8|2901c355] (0+2/2) Accurately ripped
08 [9b0c0a79|f63a30aa] (0+2/2) Accurately ripped
09 [56c470d7|2493d450] (0+1/1) Accurately ripped
10 [474aa4e0|20f1b492] (0+1/1) Accurately ripped
11 [98c4d982|30a9a050] (0+1/1) Accurately ripped
12 [341154bd|67105ab6] (0+1/1) Accurately ripped
13 [781303a7|f20489b0] (0+1/1) Accurately ripped
14 [5e9ab944|ccd03834] (0+1/1) Accurately ripped
15 [219af127|1ca9734c] (0+1/1) Accurately ripped

Track Peak [ CRC32 ] [W/O NULL] [ LOG ]
– 100,0 [44116AC1] [5FF5EE6C]
01 100,0 [4D92B89D] [ED43D105] CRC32
02 100,0 [4738740A] [4D8C4923] CRC32
03 100,0 [94F5A963] [EB502AF4] CRC32
04 100,0 [135B35CD] [895A2F97] CRC32
05 100,0 [30760562] [FFF91D76] CRC32
06 100,0 [0BB2E46C] [258B5469] CRC32
07 100,0 [A47B07F4] [7C658E5B] CRC32
08 100,0 [102C90F7] [FD629AA9] CRC32
09 100,0 [84DD7FC3] [C182106B] CRC32
10 100,0 [EB9428D1] [290990E6] CRC32
11 100,0 [E7DAD68A] [52B352C6] CRC32
12 100,0 [5F6DCDF9] [DD3FE5CC] CRC32
13 100,0 [6A2E71BC] [36E0EE6F] CRC32
14 100,0 [42907A1C] [86E2C082] CRC32
15 100,0 [1017B998] [E4D70120] CRC32

Exact Audio Copy V1.3 from 2. September 2016

EAC extraction logfile from 11. March 2019, 1:15

Shelter feat. Andy Bell / iPop (Deluxe edition) Vol.2

Used drive : PIONEER DVD-RW DVR-221L Adapter: 1 ID: 1

Read mode : Secure
Utilize accurate stream : Yes
Defeat audio cache : Yes
Make use of C2 pointers : No

Read offset correction : 6
Overread into Lead-In and Lead-Out : No
Fill up missing offset samples with silence : Yes
Delete leading and trailing silent blocks : No
Null samples used in CRC calculations : Yes
Used interface : Native Win32 interface for Win NT & 2000
Gap handling : Appended to previous track

Used output format : User Defined Encoder
Selected bitrate : 1024 kBit/s
Quality : High
Add ID3 tag : No
Command line compressor : C:\Program Files (x86)\Exact Audio Copy\FLAC\FLAC.EXE
Additional command line options : -6 -V -T "COMMENT=Ripped by RRCLtd for RRC" -T "ARTIST=%artist%" -T "TITLE=%title%" -T "ALBUM=%albumtitle%" -T "DATE=%year%" -T "TRACKNUMBER=%tracknr%" -T "GENRE=%genre%" -T "BAND=%albuminterpret%" -T "ALBUMARTIST=%albuminterpret%" -T "COMPOSER=%composer%" %haslyrics%–tag-from-file=LYRICS="%lyricsfile%"%haslyrics% -T "DISCNUMBER=%cdnumber%" -T "TOTALDISCS=%totalcds%" -T "TOTALTRACKS=%numtracks%" %hascover%–picture="%coverfile%"%hascover% %source%


TOC of the extracted CD

Track | Start | Length | Start sector | End sector
––––––––––––––––––––––––––––-
1 | 0:00.00 | 4:30.74 | 0 | 20323
2 | 4:30.74 | 3:41.52 | 20324 | 36950
3 | 8:12.51 | 4:24.07 | 36951 | 56757
4 | 12:36.58 | 3:25.51 | 56758 | 72183
5 | 16:02.34 | 3:25.33 | 72184 | 87591
6 | 19:27.67 | 3:50.22 | 87592 | 104863
7 | 23:18.14 | 4:02.27 | 104864 | 123040
8 | 27:20.41 | 3:12.43 | 123041 | 137483
9 | 30:33.09 | 4:02.53 | 137484 | 155686
10 | 34:35.62 | 3:37.70 | 155687 | 172031
11 | 38:13.57 | 3:25.63 | 172032 | 187469
12 | 41:39.45 | 4:24.60 | 187470 | 207329
13 | 46:04.30 | 4:02.31 | 207330 | 225510
14 | 50:06.61 | 7:21.35 | 225511 | 258620


Track 1

Filename E:\RRCLtd Rip\01-Electrostatic (DJ Jekyll's Chemical Mix Mix).wav

Pre-gap length 0:00:02.00

Peak level 100.0 %
Extraction speed 2.9 X
Track quality 100.0 %
Test CRC C2F26E80
Copy CRC C2F26E80
Accurately ripped (confidence 1) [2D5BFD9A] (AR v2)
Copy OK

Track 2

Filename E:\RRCLtd Rip\02-In Somebody's Arms (DJ Jekyll's Homeward Bound Fantasia Mix).wav

Pre-gap length 0:00:02.00

Peak level 100.0 %
Extraction speed 3.1 X
Track quality 100.0 %
Test CRC 7C71DF1F
Copy CRC 7C71DF1F
Accurately ripped (confidence 1) [ABD0F5E6] (AR v2)
Copy OK

Track 3

Filename E:\RRCLtd Rip\03-Beautiful (Don Mueller's Single Mix).wav

Pre-gap length 0:00:02.00

Peak level 100.0 %
Extraction speed 3.5 X
Track quality 100.0 %
Test CRC 7FAB2973
Copy CRC 7FAB2973
Accurately ripped (confidence 2) [CBE24247] (AR v2)
Copy OK

Track 4

Filename E:\RRCLtd Rip\04-Stars (Airjax Radio Mix).wav

Pre-gap length 0:00:02.00

Peak level 100.0 %
Extraction speed 3.6 X
Track quality 100.0 %
Test CRC 3DE9C7C7
Copy CRC 3DE9C7C7
Accurately ripped (confidence 1) [01E020C2] (AR v2)
Copy OK

Track 5

Filename E:\RRCLtd Rip\05-Electrostatic (DJ Jekyll's Dr & Mr Mix).wav

Pre-gap length 0:00:02.00

Peak level 100.0 %
Extraction speed 3.7 X
Track quality 100.0 %
Test CRC C77BDCFD
Copy CRC C77BDCFD
Accurately ripped (confidence 1) [60D9023B] (AR v2)
Copy OK

Track 6

Filename E:\RRCLtd Rip\06-Go Hard Or Go Home (DJ Jekyll's Detroit Diva Mix).wav

Pre-gap length 0:00:02.00

Peak level 100.0 %
Extraction speed 4.0 X
Track quality 100.0 %
Test CRC 11DB5985
Copy CRC 11DB5985
Accurately ripped (confidence 1) [3C6BCA23] (AR v2)
Copy OK

Track 7

Filename E:\RRCLtd Rip\07-Friend (DJ Jekyll's Friendship Day Mix).wav

Pre-gap length 0:00:02.00

Peak level 100.0 %
Extraction speed 3.3 X
Track quality 99.9 %
Test CRC 45090833
Copy CRC 45090833
Accurately ripped (confidence 2) [3679D89A] (AR v2)
Copy OK

Track 8

Filename E:\RRCLtd Rip\08-In Somebody's Arms (DJ Jekyll's Electro-Lullaby Mix).wav

Pre-gap length 0:00:02.00

Peak level 100.0 %
Extraction speed 3.2 X
Track quality 99.9 %
Test CRC 933266B4
Copy CRC 933266B4
Accurately ripped (confidence 1) [680EC9B9] (AR v2)
Copy OK

Track 9

Filename E:\RRCLtd Rip\09-Beautiful (Matt Pop's Radio Mix).wav

Pre-gap length 0:00:02.00

Peak level 98.8 %
Extraction speed 3.5 X
Track quality 99.9 %
Test CRC 38870847
Copy CRC 38870847
Accurately ripped (confidence 1) [4384F7EF] (AR v2)
Copy OK

Track 10

Filename E:\RRCLtd Rip\10-Stars (Sinestar's Kram Mix Homage Remix).wav

Pre-gap length 0:00:02.00

Peak level 100.0 %
Extraction speed 4.7 X
Track quality 100.0 %
Test CRC 30F1F183
Copy CRC 30F1F183
Accurately ripped (confidence 1) [D8E39CB6] (AR v2)
Copy OK

Track 11

Filename E:\RRCLtd Rip\11-Electrostatic (Rob Dust's Radio Edit).wav

Pre-gap length 0:00:02.00

Peak level 100.0 %
Extraction speed 3.6 X
Track quality 99.9 %
Test CRC AD9147F0
Copy CRC AD9147F0
Accurately ripped (confidence 1) [EFEACD3A] (AR v2)
Copy OK

Track 12

Filename E:\RRCLtd Rip\12-Beautiful (DJ Jekyll's Darker Than Wagner Mix).wav

Pre-gap length 0:00:02.00

Peak level 100.0 %
Extraction speed 5.1 X
Track quality 100.0 %
Test CRC 8AB9532A
Copy CRC 8AB9532A
Accurately ripped (confidence 1) [CE3E562D] (AR v2)
Copy OK

Track 13

Filename E:\RRCLtd Rip\13-Friend (DJ Jekyll's Chillax Edit).wav

Pre-gap length 0:00:02.00

Peak level 100.0 %
Extraction speed 5.2 X
Track quality 100.0 %
Test CRC D932276F
Copy CRC D932276F
Accurately ripped (confidence 1) [4526CD36] (AR v2)
Copy OK

Track 14

Filename E:\RRCLtd Rip\14-Beautiful (Matt Pop's Extended Club Mix).wav

Pre-gap length 0:00:02.00

Peak level 98.8 %
Extraction speed 5.9 X
Track quality 100.0 %
Test CRC 412A1545
Copy CRC 412A1545
Accurately ripped (confidence 1) [942C67BC] (AR v2)
Copy OK


All tracks accurately ripped

No errors occurred

End of status report

–– CUETools DB Plugin V2.1.6

[CTDB TOCID: cV2GO0S9Nzq7oH6NCE4P8x7Tfa0-] found
Submit result: already submitted
Track | CTDB Status
1 | (2/2) Accurately ripped
2 | (2/2) Accurately ripped
3 | (2/2) Accurately ripped
4 | (2/2) Accurately ripped
5 | (2/2) Accurately ripped
6 | (2/2) Accurately ripped
7 | (2/2) Accurately ripped
8 | (2/2) Accurately ripped
9 | (2/2) Accurately ripped
10 | (2/2) Accurately ripped
11 | (2/2) Accurately ripped
12 | (2/2) Accurately ripped
13 | (2/2) Accurately ripped
14 | (2/2) Accurately ripped


==== Log checksum B523A33E11EA0D28F059F1CD9531C1B48F684FC46E29B772AB9AECB94C32D66F ====

[CUETools log; Date: 04.05.2020 21:34:15; Version: 2.1.4]
[CTDB TOCID: cV2GO0S9Nzq7oH6NCE4P8x7Tfa0-] found.
Track | CTDB Status
1 | (3/3) Accurately ripped
2 | (3/3) Accurately ripped
3 | (3/3) Accurately ripped
4 | (3/3) Accurately ripped
5 | (3/3) Accurately ripped
6 | (3/3) Accurately ripped
7 | (3/3) Accurately ripped
8 | (3/3) Accurately ripped
9 | (3/3) Accurately ripped
10 | (3/3) Accurately ripped
11 | (3/3) Accurately ripped
12 | (3/3) Accurately ripped
13 | (3/3) Accurately ripped
14 | (3/3) Accurately ripped
[AccurateRip ID: 001c2a59-012bdb1f-c30d780e] found.
Track [ CRC | V2 ] Status
01 [9f5dffec|2d5bfd9a] (0+1/1) Accurately ripped
02 [e10256b6|abd0f5e6] (0+1/1) Accurately ripped
03 [c4cd5f7d|cbe24247] (0+2/2) Accurately ripped
04 [8e6bf613|01e020c2] (0+1/1) Accurately ripped
05 [08fdfba3|60d9023b] (0+1/1) Accurately ripped
06 [44a73b21|3c6bca23] (0+1/1) Accurately ripped
07 [900ebfcb|3679d89a] (0+2/2) Accurately ripped
08 [33007106|680ec9b9] (0+1/1) Accurately ripped
09 [33b19647|4384f7ef] (0+1/1) Accurately ripped
10 [5f989c54|d8e39cb6] (0+1/1) Accurately ripped
11 [e6fe7ff2|efeacd3a] (0+1/1) Accurately ripped
12 [0004ca90|ce3e562d] (0+1/1) Accurately ripped
13 [0623455a|4526cd36] (0+1/1) Accurately ripped
14 [0627316a|942c67bc] (0+1/1) Accurately ripped

Track Peak [ CRC32 ] [W/O NULL] [ LOG ]
– 100,0 [9CC28AA6] [71795BF2]
01 100,0 [C2F26E80] [4A9A9D8A] CRC32
02 100,0 [7C71DF1F] [32B1BD24] CRC32
03 100,0 [7FAB2973] [23E6BB78] CRC32
04 100,0 [3DE9C7C7] [708FB049] CRC32
05 100,0 [C77BDCFD] [26A7B742] CRC32
06 100,0 [11DB5985] [2260B601] CRC32
07 100,0 [45090833] [FF89171A] CRC32
08 100,0 [933266B4] [4A24C345] CRC32
09 98,8 [38870847] [2CBA0D38] CRC32
10 100,0 [30F1F183] [012E9511] CRC32
11 100,0 [AD9147F0] [16797853] CRC32
12 100,0 [8AB9532A] [0B23421A] CRC32
13 100,0 [D932276F] [6FBE9E17] CRC32
14 98,8 [412A1545] [5EBE4835] CRC32

Exact Audio Copy V1.3 from 2. September 2016

EAC extraction logfile from 11. March 2019, 0:43

Shelter feat. Andy Bell / iPop (Deluxe Edition) Vol.3

Used drive : PIONEER DVD-RW DVR-221L Adapter: 1 ID: 1

Read mode : Secure
Utilize accurate stream : Yes
Defeat audio cache : Yes
Make use of C2 pointers : No

Read offset correction : 6
Overread into Lead-In and Lead-Out : No
Fill up missing offset samples with silence : Yes
Delete leading and trailing silent blocks : No
Null samples used in CRC calculations : Yes
Used interface : Native Win32 interface for Win NT & 2000
Gap handling : Appended to previous track

Used output format : User Defined Encoder
Selected bitrate : 1024 kBit/s
Quality : High
Add ID3 tag : No
Command line compressor : C:\Program Files (x86)\Exact Audio Copy\FLAC\FLAC.EXE
Additional command line options : -6 -V -T "COMMENT=Ripped by RRCLtd for RRC" -T "ARTIST=%artist%" -T "TITLE=%title%" -T "ALBUM=%albumtitle%" -T "DATE=%year%" -T "TRACKNUMBER=%tracknr%" -T "GENRE=%genre%" -T "BAND=%albuminterpret%" -T "ALBUMARTIST=%albuminterpret%" -T "COMPOSER=%composer%" %haslyrics%–tag-from-file=LYRICS="%lyricsfile%"%haslyrics% -T "DISCNUMBER=%cdnumber%" -T "TOTALDISCS=%totalcds%" -T "TOTALTRACKS=%numtracks%" %hascover%–picture="%coverfile%"%hascover% %source%


TOC of the extracted CD

Track | Start | Length | Start sector | End sector
––––––––––––––––––––––––––––-
1 | 0:00.00 | 6:30.50 | 0 | 29299
2 | 6:30.50 | 6:13.63 | 29300 | 57337
3 | 12:44.38 | 5:26.67 | 57338 | 81854
4 | 18:11.30 | 3:46.22 | 81855 | 98826
5 | 21:57.52 | 3:45.69 | 98827 | 115770
6 | 25:43.46 | 4:32.46 | 115771 | 136216
7 | 30:16.17 | 6:14.54 | 136217 | 164320
8 | 36:30.71 | 3:21.52 | 164321 | 179447
9 | 39:52.48 | 6:22.70 | 179448 | 208167
10 | 46:15.43 | 3:44.74 | 208168 | 225041
11 | 50:00.42 | 7:23.47 | 225042 | 258313


Track 1

Filename E:\RRCLtd Rip\01-Stars (Airjax Extended Club Mix).wav

Pre-gap length 0:00:02.00

Peak level 100.0 %
Extraction speed 3.1 X
Track quality 100.0 %
Test CRC E7C08CFA
Copy CRC E7C08CFA
Accurately ripped (confidence 1) [F5919379] (AR v2)
Copy OK

Track 2

Filename E:\RRCLtd Rip\02-Electrostatic (Rob Dust's Extended Remix).wav

Pre-gap length 0:00:02.00

Peak level 100.0 %
Extraction speed 3.0 X
Track quality 99.9 %
Test CRC 6DEAAD58
Copy CRC 6DEAAD58
Accurately ripped (confidence 1) [35EB8F31] (AR v2)
Copy OK

Track 3

Filename E:\RRCLtd Rip\03-Go Hard Or Go Home (Alignment North's End Mix).wav

Pre-gap length 0:00:02.00

Peak level 100.0 %
Extraction speed 3.8 X
Track quality 100.0 %
Test CRC DC19B3DC
Copy CRC DC19B3DC
Accurately ripped (confidence 1) [32F85CB2] (AR v2)
Copy OK

Track 4

Filename E:\RRCLtd Rip\04-Destination (Destination's Meteoric Mix).wav

Pre-gap length 0:00:02.00

Peak level 100.0 %
Extraction speed 3.9 X
Track quality 100.0 %
Test CRC 31B8A789
Copy CRC 31B8A789
Accurately ripped (confidence 1) [D1A73A5A] (AR v2)
Copy OK

Track 5

Filename E:\RRCLtd Rip\05-In Somebody's Arms (Northern Kind Mix).wav

Pre-gap length 0:00:02.00

Peak level 98.8 %
Extraction speed 4.2 X
Track quality 100.0 %
Test CRC 795E1F3B
Copy CRC 795E1F3B
Accurately ripped (confidence 1) [B90AF11F] (AR v2)
Copy OK

Track 6

Filename E:\RRCLtd Rip\06-Beautiful (DJ Ram's Gorgeous Mix).wav

Pre-gap length 0:00:02.00

Peak level 100.0 %
Extraction speed 4.5 X
Track quality 100.0 %
Test CRC 0DDA3D2C
Copy CRC 0DDA3D2C
Accurately ripped (confidence 1) [4A0D6E31] (AR v2)
Copy OK

Track 7

Filename E:\RRCLtd Rip\07-Beautiful (Mesh Mix).wav

Pre-gap length 0:00:02.00

Peak level 100.0 %
Extraction speed 4.9 X
Track quality 100.0 %
Test CRC F27C9810
Copy CRC F27C9810
Accurately ripped (confidence 1) [99502BC5] (AR v2)
Copy OK

Track 8

Filename E:\RRCLtd Rip\08-Electrostatic (DJ Jekyll's Down & Dirty With The Latinogod Mix).wav

Pre-gap length 0:00:02.00

Peak level 100.0 %
Extraction speed 4.6 X
Track quality 100.0 %
Test CRC A19AF4E8
Copy CRC A19AF4E8
Accurately ripped (confidence 1) [4FFDC81B] (AR v2)
Copy OK

Track 9

Filename E:\RRCLtd Rip\09-Electrostatic (People Theatre's Short-Circuit Mix).wav

Pre-gap length 0:00:02.00

Peak level 100.0 %
Extraction speed 5.3 X
Track quality 100.0 %
Test CRC 8A2AF158
Copy CRC 8A2AF158
Accurately ripped (confidence 1) [FCA638A6] (AR v2)
Copy OK

Track 10

Filename E:\RRCLtd Rip\10-Go Hard Or Go Home (DJ Jekyll's Don't Stop The Beat Mix).wav

Pre-gap length 0:00:02.00

Peak level 100.0 %
Extraction speed 5.1 X
Track quality 100.0 %
Test CRC FBE11641
Copy CRC FBE11641
Accurately ripped (confidence 1) [A8333BFB] (AR v2)
Copy OK

Track 11

Filename E:\RRCLtd Rip\11-Beautiful (Shelter's Violet Flame Tour Mix).wav

Pre-gap length 0:00:02.00

Peak level 100.0 %
Extraction speed 5.7 X
Track quality 100.0 %
Test CRC 65E8B64C
Copy CRC 65E8B64C
Accurately ripped (confidence 1) [E87D19E6] (AR v2)
Copy OK


All tracks accurately ripped

No errors occurred

End of status report

–– CUETools DB Plugin V2.1.6

[CTDB TOCID: W0ra4xS58VNgZxQ9MYim2ZGGq98-] found
Submit result: already submitted
Track | CTDB Status
1 | (2/2) Accurately ripped
2 | (2/2) Accurately ripped
3 | (2/2) Accurately ripped
4 | (2/2) Accurately ripped
5 | (2/2) Accurately ripped
6 | (2/2) Accurately ripped
7 | (2/2) Accurately ripped
8 | (2/2) Accurately ripped
9 | (2/2) Accurately ripped
10 | (2/2) Accurately ripped
11 | (2/2) Accurately ripped


==== Log checksum BE61F6067E09403A6731150DAB4E102150A9F19B555F34CC7A07535F2E820908 ====

[CUETools log; Date: 04.05.2020 21:34:47; Version: 2.1.4]
[CTDB TOCID: W0ra4xS58VNgZxQ9MYim2ZGGq98-] found.
Track | CTDB Status
1 | (3/3) Accurately ripped
2 | (3/3) Accurately ripped
3 | (3/3) Accurately ripped
4 | (3/3) Accurately ripped
5 | (3/3) Accurately ripped
6 | (3/3) Accurately ripped
7 | (3/3) Accurately ripped
8 | (3/3) Accurately ripped
9 | (3/3) Accurately ripped
10 | (3/3) Accurately ripped
11 | (3/3) Accurately ripped
[AccurateRip ID: 0017b8a9-00cabda9-9b0d740b] found.
Track [ CRC | V2 ] Status
01 [12e5caab|f5919379] (0+1/1) Accurately ripped
02 [35e82d71|35eb8f31] (0+1/1) Accurately ripped
03 [bcbef872|32f85cb2] (0+1/1) Accurately ripped
04 [86b107b8|d1a73a5a] (0+1/1) Accurately ripped
05 [ba3dda2e|b90af11f] (0+1/1) Accurately ripped
06 [f2063730|4a0d6e31] (0+1/1) Accurately ripped
07 [11b69c52|99502bc5] (0+1/1) Accurately ripped
08 [9cece1ff|4ffdc81b] (0+1/1) Accurately ripped
09 [b83c2842|fca638a6] (0+1/1) Accurately ripped
10 [7ecbe323|a8333bfb] (0+1/1) Accurately ripped
11 [5588ae54|e87d19e6] (0+1/1) Accurately ripped

Track Peak [ CRC32 ] [W/O NULL] [ LOG ]
– 100,0 [A472FCE8] [CA3B57D8]
01 100,0 [E7C08CFA] [2EBE8B99] CRC32
02 100,0 [6DEAAD58] [FD776F3C] CRC32
03 100,0 [DC19B3DC] [F068FE50] CRC32
04 100,0 [31B8A789] [B7901D76] CRC32
05 98,8 [795E1F3B] [07F4F867] CRC32
06 100,0 [0DDA3D2C] [C04E39E2] CRC32
07 100,0 [F27C9810] [A1500D90] CRC32
08 100,0 [A19AF4E8] [53B1AE3D] CRC32
09 100,0 [8A2AF158] [F1E2756E] CRC32
10 100,0 [FBE11641] [CEA977BE] CRC32
11 100,0 [65E8B64C] [865F5B11] CRC32

Thanks to RRC

See also: