Subcategories

Shirley Collins & The Albion Country Band - No Roses (1971) Reissue 2004

Posted By: Designol
Shirley Collins & The Albion Country Band - No Roses (1971) Reissue 2004

Shirley Collins & The Albion Country Band - No Roses (1971) Reissue 2004
EAC | FLAC | Image (Cue&Log) ~ 240 Mb | Mp3 (CBR320) ~ 114 Mb | Scans included | 00:35:02
British Folk, British Folk-Rock | Label: Castle Music/Sanctuary | # CMRCD951

Shirley Collins' collaboration with the Albion Country Band for No Roses is considered a major event in the history of British folk and British folk-rock. For it was the first time that Collins, roundly acknowledged as one of the best British traditional folk singers, sang with electric accompaniment, and indeed one of the first times that a British traditional folk musician had "gone electric" in the wake of Dave Swarbrick joining Fairport Convention and Martin Carthy joining Steeleye Span. The album itself doesn't sound too radical, however. At times it sounds something like Fairport Convention with Shirley Collins on lead vocals, which is unsurprising given the presence of Ashley Hutchings on all cuts but one, and Richard Thompson and Simon Nicol on most of the selections (Dave Mattacks plays drums on a few tracks for good measure). The nine songs are almost wholly traditional tunes with Collins' arrangements, with perhaps a jauntier and folkier mood than that heard in early-'70s Fairport, though not much. It's more impressive for Collins' always tasteful smoky vocals than for the imagination of the material, which consolidates the sound of the more traditional wing of early-'70s British folk-rock.

Review by Richie Unterberger, Allmusic.com

Shirley Collins & The Albion Country Band - No Roses (1971) Reissue 2004



Tracklist:

01. Claudy Banks (4:36)
02. The Little Gypsy Girl (2:16)
03. Banks Of The Bann (3:39)
04. Murder Of Maria Marten (7:24)
05. Van Dieman's Land (4:59)
06. Just As The Tide Was A'Flowing (2:12)
07. The White Hare (2:44)
08. Hal-An-Tow (2:53)
09. Poor Murdered Woman (4:19)


Exact Audio Copy V0.99 prebeta 3 from 28. July 2007

EAC extraction logfile from 25. November 2008, 19:30

Shirley Collins & The Albion Country Band / No Roses

Used drive : Memorex DVD+-RAM 530L v1 Adapter: 0 ID: 0

Read mode : Secure
Utilize accurate stream : Yes
Defeat audio cache : Yes
Make use of C2 pointers : No

Read offset correction : 6
Overread into Lead-In and Lead-Out : No
Fill up missing offset samples with silence : Yes
Delete leading and trailing silent blocks : No
Null samples used in CRC calculations : Yes
Used interface : Installed external ASPI interface

Used output format : Internal WAV Routines
Sample format : 44.100 Hz; 16 Bit; Stereo


TOC of the extracted CD

Track | Start | Length | Start sector | End sector
––––––––––––––––––––––––––––-
1 | 0:00.00 | 4:36.25 | 0 | 20724
2 | 4:36.25 | 2:15.40 | 20725 | 30889
3 | 6:51.65 | 3:38.67 | 30890 | 47306
4 | 10:30.57 | 7:24.03 | 47307 | 80609
5 | 17:54.60 | 4:58.60 | 80610 | 103019
6 | 22:53.45 | 2:12.37 | 103020 | 112956
7 | 25:06.07 | 2:43.40 | 112957 | 125221
8 | 27:49.47 | 2:53.10 | 125222 | 138206
9 | 30:42.57 | 4:19.25 | 138207 | 157656


Range status and errors

Selected range

Filename C:\Documents and Settings\Compaq_Owner.LIAM.000\Desktop\Shirley Collins & The Albion Country Band - No Roses.wav

Peak level 98.8 %
Range quality 100.0 %
Copy CRC C94911AE
Copy OK

No errors occurred

End of status report

[CUETools log; Date: 08.10.2017 1:03:02; Version: 2.1.4]
[CTDB TOCID: WHnZLoloAINNXs7n0r4Uf7B88bs-] found.
Track | CTDB Status
1 | (30/30) Accurately ripped
2 | (30/30) Accurately ripped
3 | (30/30) Accurately ripped
4 | (29/30) Accurately ripped
5 | (29/30) Accurately ripped
6 | (30/30) Accurately ripped
7 | (30/30) Accurately ripped
8 | (30/30) Accurately ripped
9 | (30/30) Accurately ripped
[AccurateRip ID: 000c75d3-005ae733-72083609] found.
Track [ CRC | V2 ] Status
01 [e65d1349|1c8daafe] (02+03/30) Accurately ripped
02 [2b629a05|4b2b085f] (02+03/31) Accurately ripped
03 [60158109|d823ce3d] (02+03/32) Accurately ripped
04 [829a631d|a8f8d9c9] (02+03/31) Accurately ripped
05 [a7105f90|e7b926c8] (02+03/30) Accurately ripped
06 [d8f6de09|bfc95154] (02+03/30) Accurately ripped
07 [40f49879|38fbd000] (02+03/31) Accurately ripped
08 [5322dac1|f2a45292] (02+03/30) Accurately ripped
09 [2395a55f|92cf3256] (02+03/31) Accurately ripped
Offsetted by -646:
01 [bbfdf214] (02/30) Accurately ripped
02 [18890d65] (02/31) Accurately ripped
03 [e66250ba] (02/32) Accurately ripped
04 [c3c80398] (02/31) Accurately ripped
05 [bd35a9ac] (02/30) Accurately ripped
06 [7deca451] (02/30) Accurately ripped
07 [ebd18fa0] (02/31) Accurately ripped
08 [24d877ab] (02/30) Accurately ripped
09 [51f8ff59] (02/31) Accurately ripped
Offsetted by 18:
01 [981ff9de] (04/30) Accurately ripped
02 [b15e21de] (04/31) Accurately ripped
03 [7b6480c4] (04/32) Accurately ripped
04 [2227cfa8] (04/31) Accurately ripped
05 [de23f88c] (04/30) Accurately ripped
06 [0250fdef] (04/30) Accurately ripped
07 [d99b6859] (04/31) Accurately ripped
08 [69d1145f] (04/30) Accurately ripped
09 [2e21e595] (04/31) Accurately ripped
Offsetted by -1310:
01 [5e93f2ec] (00/30) No match (V2 was not tested)
02 [ae5aae2b] (00/31) No match (V2 was not tested)
03 [a7e94073] (00/32) No match (V2 was not tested)
04 [d1c70ca4] (00/31) No match (V2 was not tested)
05 [76860485] (00/30) No match (V2 was not tested)
06 [e02bc141] (00/30) No match (V2 was not tested)
07 [7bf26718] (00/31) No match (V2 was not tested)
08 [605e4578] (00/30) No match (V2 was not tested)
09 [d571ec9c] (00/31) No match (V2 was not tested)

Track Peak [ CRC32 ] [W/O NULL] [ LOG ]
– 98,8 [C94911AE] [B4E4E64E] CRC32
01 98,8 [D798894C] [3D9914D3]
02 97,7 [CEF5397B] [877EF69A]
03 94,0 [36173B7F] [3008743D]
04 98,8 [8DF5A156] [04C2D174]
05 97,7 [77E04DC6] [2849941F]
06 98,8 [5EE4CFA0] [9808B65A]
07 98,8 [F81B2E65] [7D62E604]
08 98,8 [08BA6978] [04C77ECD]
09 97,6 [B21F753C] [E77C5438]

foobar2000 1.2 / Dynamic Range Meter 1.1.1
log date: 2017-10-08 01:09:36

––––––––––––––––––––––––––––––––––––––––
Analyzed: Shirley Collins & The Albion Country Band / No Roses
––––––––––––––––––––––––––––––––––––––––

DR Peak RMS Duration Track
––––––––––––––––––––––––––––––––––––––––
DR10 -0.10 dB -10.92 dB 4:36 01-Claudy Banks
DR10 -0.20 dB -11.35 dB 2:16 02-The Little Gypsy Girl
DR9 -0.54 dB -12.96 dB 3:39 03-Banks Of The Bann
DR9 -0.10 dB -12.19 dB 7:24 04-Murder Of Maria Marten
DR10 -0.20 dB -12.40 dB 4:59 05-Van Dieman's Land
DR11 -0.10 dB -14.31 dB 2:12 06-Just As The Tide Was A'Flowing
DR10 -0.10 dB -12.54 dB 2:44 07-The White Hare
DR10 -0.10 dB -12.14 dB 2:53 08-Hal-An-Tow
DR9 -0.21 dB -11.13 dB 4:19 09-Poor Murdered Woman
––––––––––––––––––––––––––––––––––––––––

Number of tracks: 9
Official DR value: DR10

Samplerate: 44100 Hz
Channels: 2
Bits per sample: 16
Bitrate: 823 kbps
Codec: FLAC
================================================================================

Shirley Collins & The Albion Country Band - No Roses (1971) Reissue 2004

Shirley Collins & The Albion Country Band - No Roses (1971) Reissue 2004

All thanks to original releaser

More interesting music in My Blog