Subcategories

Shocking Blue - Inkpot & Attila (1972) {1997, 2LP on 1CD, Reissue}

Posted By: popsakov
Shocking Blue - Inkpot & Attila (1972) {1997, 2LP on 1CD, Reissue}

Shocking Blue - Inkpot & Attila (1972) {1997, 2LP on 1CD, Reissue}
EAC Rip | FLAC (Img) + Cue + Log ~ 549 Mb | MP3 CBR320 ~ 185 Mb
Full Scans ~ 52 Mb | 01:16:33 | RAR 5% Recovery
Rock | Repertoire Records #4610-WP

This two-fer from Repertoire features a pair of out of print Shocking Blue LPs: Ink Pot and Attila. Originally issued in 1972, these 31 tracks were written by guitarist Robby VanLeeuwen (with the exception of "I Ain't Never" and "Tobacco Road,") and are surprisingly better than might be expected from a one-hit wonder.

~ Al Campbell, All Music

***************

Shocking Blue - Inkpot & Attila (1972) {1997, 2LP on 1CD, Reissue}

Shocking Blue - Inkpot & Attila (1972) {1997, 2LP on 1CD, Reissue}

Track List:

Inkpot (1972)
01. I Ain't Never [02:17]
02. Navajo Tears [02:40]
03. Shadows [02:30]
04. Blue Jean [02:36]
05. Jambalaya [02:28]
06. Inkpot [02:39]
07. Tobacco Road [02:33]
08. Hey [02:30]
09. Who Save My Soul [01:57]
10. Red Leaves I+II [02:37]
11. The Queen [02:05]
12. I Melt Like Butter [02:13]

Attila (1972)
13. Rattler [02:48]
14. Never Release The One You Love [02:59]
15. A Waste Of Time [02:41]
16. Wait [02:02]
17. The Devil And The Angel [02:27]
18. Rock In The Sea [02:58]
19. I've Spent My Money [01:59]
20. Will The Circle Be Unbroken [02:40]
21. Early In The Morning [02:17]
22. I Built My World Around [01:57]
23. Don't Let Your Right Know [02:08]
24. Broken Heart [02:24]

Additional Tracks
25. Out Of Sight, Out Of Mind [02:46]
26. I Like You [02:11]
27. Give My Love To The Sunrise [02:26]
28. Eve And The Apple [02:41]
29. When I Was A Girl [02:25]
30. Everything That's Mine [03:31]
31. I Saw You In June [02:23]

Exact Audio Copy V1.0 beta 1 from 15. November 2010

EAC extraction logfile from 4. May 2016, 22:22

Shocking Blue / Inkpot & Attila

Used drive : MATSHITADVD-RAM UJ8A0AS Adapter: 0 ID: 1

Read mode : Secure
Utilize accurate stream : Yes
Defeat audio cache : Yes
Make use of C2 pointers : No

Read offset correction : 102
Overread into Lead-In and Lead-Out : No
Fill up missing offset samples with silence : Yes
Delete leading and trailing silent blocks : No
Null samples used in CRC calculations : Yes
Used interface : Native Win32 interface for Win NT & 2000

Used output format : Internal WAV Routines
Sample format : 44.100 Hz; 16 Bit; Stereo


TOC of the extracted CD

Track | Start | Length | Start sector | End sector
––––––––––––––––––––––––––––-
1 | 0:00.00 | 2:16.05 | 0 | 10204
2 | 2:16.05 | 2:39.25 | 10205 | 22154
3 | 4:55.30 | 2:29.07 | 22155 | 33336
4 | 7:24.37 | 2:35.18 | 33337 | 44979
5 | 9:59.55 | 2:27.02 | 44980 | 56006
6 | 12:26.57 | 2:38.70 | 56007 | 67926
7 | 15:05.52 | 2:32.50 | 67927 | 79376
8 | 17:38.27 | 2:29.25 | 79377 | 90576
9 | 20:07.52 | 1:56.53 | 90577 | 99329
10 | 22:04.30 | 2:36.65 | 99330 | 111094
11 | 24:41.20 | 2:04.37 | 111095 | 120431
12 | 26:45.57 | 2:12.03 | 120432 | 130334
13 | 28:57.60 | 2:47.72 | 130335 | 142931
14 | 31:45.57 | 2:58.45 | 142932 | 156326
15 | 34:44.27 | 2:40.48 | 156327 | 168374
16 | 37:25.00 | 2:01.70 | 168375 | 177519
17 | 39:26.70 | 2:26.22 | 177520 | 188491
18 | 41:53.17 | 2:57.40 | 188492 | 201806
19 | 44:50.57 | 1:58.50 | 201807 | 210706
20 | 46:49.32 | 2:39.03 | 210707 | 222634
21 | 49:28.35 | 2:16.42 | 222635 | 232876
22 | 51:45.02 | 1:56.35 | 232877 | 241611
23 | 53:41.37 | 2:07.10 | 241612 | 251146
24 | 55:48.47 | 2:23.68 | 251147 | 261939
25 | 58:12.40 | 2:45.40 | 261940 | 274354
26 | 60:58.05 | 2:10.65 | 274355 | 284169
27 | 63:08.70 | 2:25.57 | 284170 | 295101
28 | 65:34.52 | 2:40.50 | 295102 | 307151
29 | 68:15.27 | 2:24.70 | 307152 | 318021
30 | 70:40.22 | 3:30.10 | 318022 | 333781
31 | 74:10.32 | 2:22.43 | 333782 | 344474


Range status and errors

Selected range

Filename C:\Users\Alex\Music\Alexharvey\Shocking Blue - Inkpot & Attila.wav

Peak level 98.4 %
Extraction speed 0.1 X
Range quality 100.0 %
Test CRC FA5FA179
Copy CRC FA5FA179
Copy OK

No errors occurred


AccurateRip summary

Track 1 accurately ripped (confidence 3) [4CAFAF37]
Track 2 accurately ripped (confidence 3) [53AC362D]
Track 3 accurately ripped (confidence 3) [63489B4A]
Track 4 accurately ripped (confidence 3) [BE380118]
Track 5 accurately ripped (confidence 3) [A014830F]
Track 6 accurately ripped (confidence 4) [E9EA623B]
Track 7 accurately ripped (confidence 3) [4A72BF92]
Track 8 accurately ripped (confidence 3) [E23419EA]
Track 9 accurately ripped (confidence 3) [2F8FA146]
Track 10 accurately ripped (confidence 3) [E1FDE93C]
Track 11 accurately ripped (confidence 3) [85E949C5]
Track 12 accurately ripped (confidence 3) [2AA67C7E]
Track 13 accurately ripped (confidence 3) [B5AF7126]
Track 14 accurately ripped (confidence 3) [1C583265]
Track 15 accurately ripped (confidence 3) [342BF8CE]
Track 16 accurately ripped (confidence 3) [410BA4BD]
Track 17 accurately ripped (confidence 3) [6455EA9D]
Track 18 accurately ripped (confidence 3) [CF6369E7]
Track 19 accurately ripped (confidence 3) [3D71B256]
Track 20 accurately ripped (confidence 3) [5D99E817]
Track 21 accurately ripped (confidence 3) [A4861E48]
Track 22 accurately ripped (confidence 3) [586675B3]
Track 23 accurately ripped (confidence 3) [CB65B0EE]
Track 24 accurately ripped (confidence 3) [DCAD600D]
Track 25 accurately ripped (confidence 3) [71C5CDA5]
Track 26 accurately ripped (confidence 3) [47E2A8D2]
Track 27 accurately ripped (confidence 3) [546626B3]
Track 28 accurately ripped (confidence 3) [CB7A0A30]
Track 29 accurately ripped (confidence 3) [D59C137B]
Track 30 accurately ripped (confidence 3) [693A5ACE]
Track 31 accurately ripped (confidence 3) [275FF9D8]

All tracks accurately ripped

End of status report

==== Log checksum E4B04A72BDD2131548F00CF332886035DA4E46224FC6A422CB3352F68101DDDB ====

[CUETools log; Date: 06.05.2016 3:02:01; Version: 2.1.5]
[CTDB TOCID: culyfJ4h_jFdvyfzHrR3MNZ4sgI-] found.
Track | CTDB Status
1 | (5/5) Accurately ripped
2 | (5/5) Accurately ripped
3 | (5/5) Accurately ripped
4 | (5/5) Accurately ripped
5 | (5/5) Accurately ripped
6 | (5/5) Accurately ripped
7 | (5/5) Accurately ripped
8 | (5/5) Accurately ripped
9 | (5/5) Accurately ripped
10 | (5/5) Accurately ripped
11 | (5/5) Accurately ripped
12 | (5/5) Accurately ripped
13 | (5/5) Accurately ripped
14 | (5/5) Accurately ripped
15 | (5/5) Accurately ripped
16 | (5/5) Accurately ripped
17 | (5/5) Accurately ripped
18 | (5/5) Accurately ripped
19 | (5/5) Accurately ripped
20 | (5/5) Accurately ripped
21 | (5/5) Accurately ripped
22 | (5/5) Accurately ripped
23 | (5/5) Accurately ripped
24 | (5/5) Accurately ripped
25 | (5/5) Accurately ripped
26 | (5/5) Accurately ripped
27 | (5/5) Accurately ripped
28 | (5/5) Accurately ripped
29 | (5/5) Accurately ripped
30 | (5/5) Accurately ripped
31 | (5/5) Accurately ripped
[AccurateRip ID: 00539b12-072cd98d-c511f11f] found.
Track [ CRC | V2 ] Status
01 [4cafaf37|88d3fa7b] (0+3/3) Accurately ripped
02 [53ac362d|e092dc20] (0+3/3) Accurately ripped
03 [63489b4a|dba2ef5f] (0+3/3) Accurately ripped
04 [be380118|c8e6c2c1] (0+3/3) Accurately ripped
05 [a014830f|0a1c18d3] (0+3/3) Accurately ripped
06 [e9ea623b|39a12842] (0+4/4) Accurately ripped
07 [4a72bf92|faeb2b91] (0+3/3) Accurately ripped
08 [e23419ea|f9729f25] (0+3/3) Accurately ripped
09 [2f8fa146|f529b333] (0+3/3) Accurately ripped
10 [e1fde93c|885af423] (0+3/3) Accurately ripped
11 [85e949c5|9cf0a75b] (0+3/3) Accurately ripped
12 [2aa67c7e|5a4b7268] (0+3/3) Accurately ripped
13 [b5af7126|85f927c5] (0+3/3) Accurately ripped
14 [1c583265|1dc1d4d2] (0+3/3) Accurately ripped
15 [342bf8ce|91e645df] (0+3/3) Accurately ripped
16 [410ba4bd|63a8b9ee] (0+3/3) Accurately ripped
17 [6455ea9d|e2662dcc] (0+3/3) Accurately ripped
18 [cf6369e7|76a2769d] (0+3/3) Accurately ripped
19 [3d71b256|7232d426] (0+3/3) Accurately ripped
20 [5d99e817|e6fb5821] (0+3/3) Accurately ripped
21 [a4861e48|4d87ae72] (0+3/3) Accurately ripped
22 [586675b3|90fc1f79] (0+3/3) Accurately ripped
23 [cb65b0ee|fc43e413] (0+3/3) Accurately ripped
24 [dcad600d|09f293b5] (0+3/3) Accurately ripped
25 [71c5cda5|eeb1c577] (0+3/3) Accurately ripped
26 [47e2a8d2|aa075e53] (0+3/3) Accurately ripped
27 [546626b3|2caf06dc] (0+3/3) Accurately ripped
28 [cb7a0a30|3f573601] (0+3/3) Accurately ripped
29 [d59c137b|bb3bde4b] (0+3/3) Accurately ripped
30 [693a5ace|5549f099] (0+3/3) Accurately ripped
31 [275ff9d8|77479656] (0+3/3) Accurately ripped

Track Peak [ CRC32 ] [W/O NULL] [ LOG ]
– 98,4 [FA5FA179] [73164AF0] CRC32
01 98,4 [11559164] [0580EB2C]
02 98,4 [450C9F01] [E248B42C]
03 98,4 [E18EF519] [FC3F1164]
04 98,4 [7874EE20] [8BE9D407]
05 98,4 [1EB006C9] [C3136752]
06 98,4 [C1EAB419] [E5AEBD1F]
07 98,4 [920239F2] [8D6FAD31]
08 98,4 [6256CEAF] [4BDC0C11]
09 98,4 [99EB06AA] [A285B798]
10 98,4 [FF08ABFE] [49FA5386]
11 98,4 [3E220517] [5FFD12C8]
12 98,4 [74F16C0E] [619D147E]
13 98,4 [4000D08F] [B4C744E6]
14 98,4 [D175E525] [C9D240C7]
15 98,4 [3DA63AB1] [65FF3E00]
16 98,4 [2CC3BF70] [655E059A]
17 98,4 [4CE8AAFF] [9C2F685C]
18 98,4 [18213C39] [E611CDCA]
19 98,4 [53119FC7] [77F2FA8B]
20 98,4 [4B14C78B] [22AAF311]
21 98,4 [4B8CD58D] [DD8287E1]
22 98,4 [8A1442D2] [7443E3C2]
23 98,4 [0E251F1E] [A5F092B7]
24 98,4 [5C0BC63D] [6D52B810]
25 98,4 [5CE1E198] [60C76286]
26 92,8 [0115E6B6] [9E36674F]
27 93,6 [0573493A] [97C1887F]
28 90,2 [C8874179] [E6B0F3AE]
29 91,4 [57CC8308] [170229B9]
30 98,4 [98F77560] [D13BD857]
31 98,4 [97F8DBD4] [DC66F105]

Shocking Blue - Inkpot & Attila (1972) {1997, 2LP on 1CD, Reissue}


All thanks go to Alexharvey

>>> "Shocking Blue" in my Blog <<<

DOWNLOAD: