Subcategories

Shocking Blue - Twin Best (2005) {Japanese Edition}

Posted By: popsakov
Shocking Blue - Twin Best (2005) {Japanese Edition}

Shocking Blue - Twin Best (2005) {Japanese Edition}
2CD | EAC Rip | WavPack (Img) + Cue + Log ~ 827 Mb | MP3 CBR320 ~ 294 Mb
Full Scans (PNG, 300 dpi) ~ 30 Mb | RAR 5% Recovery
Pop Rock, Classic Rock | Victor Entertainment #VICP-41387/88

Formed in 1967 by former Motions guitarist Robbie van Leeuwen, the Dutch quartet Shocking Blue originally had a lineup of VanLeeuwen on guitar, lead vocalist Fred DeWilde, bass player Klaasje Van der Wal, and drummer Cornelius Van der Beek, and the initial configuration of the band had a minor homeland hit with “Lucy Brown Is Back in Town” a year later in 1968. Things really got moving, though, when DeWilde was replaced by sultry singer Mariska Veres, whose sexy presence and solid singing brought the band a second Netherlands hit, “Send Me a Postcard,” and then a huge international smash with “Venus” in 1970 after the group had signed to Jerry Ross' Colossus Records imprint. Although Shocking Blue's albums (1968’s Shocking Blue, 1969’s At Home, 1970’s Scorpio’s Dance, 1971’s 3rd Album, 1972’s Inkpot, 1972’s Attila, 1973’s Dream on Dreamer, and 1974’s Good Times) featured progressive rock elements and inventive arrangements thanks to VanLeeuwen's writing and production skills, the band was essentially marketed as a pop singles unit, and while they scored several subsequent hits in their homeland, none of the group’s releases approached the massive saturation success of “Venus.” Veres left Shocking Blue in 1974 to pursue a solo career, and while there have been various reunions and different touring incarnations of the band over the years (including a version fronted by Veres in the '90s), its creative history ended then. VanLeeuwen later re-surfaced in the folk/jazz group Galaxy-Lin, while his most famous composition, “Venus,” continued to see play on oldies stations.
~ All Music

***************

Shocking Blue - Twin Best (2005) {Japanese Edition}

Track List CD1:

01. Venus [3:02]
02. Mighty Joe [3:08]
03. Send Me A Postcard [2:39]
04. Long And Lonesome Road [2:49]
05. Never Marry A Railroadman [3:05]
06. Inkpot [2:39]
07. Rock In The Sea [2:58]
08. Dream On Dreamer [2:49]
09. Hello Darkness [2:54]
10. Shocking You [3:00]
11. Sally Was A Good Old Girl [3:29]
12. Blossom Lady [3:34]
13. Out Of Sight Out Of Mind [2:45]
14. Eve And The Apple [2:41]
15. Let Me Carry Your Bag [3:27]
16. Oh Lord [2:30]
17. This America [2:58]
18. Good Times [3:26]
19. Gonna Sing Me A Song [2:43]
20. The Jury And The Judge [3:47]

Exact Audio Copy V1.3 from 2. September 2016

EAC extraction logfile from 10. March 2018, 21:40

Shocking Blue / Colezo! Twin Best (CD1)

Used drive : PLEXTOR DVDR PX-L890SA Adapter: 1 ID: 1

Read mode : Secure
Utilize accurate stream : Yes
Defeat audio cache : Yes
Make use of C2 pointers : No

Read offset correction : 6
Overread into Lead-In and Lead-Out : No
Fill up missing offset samples with silence : Yes
Delete leading and trailing silent blocks : No
Null samples used in CRC calculations : Yes
Used interface : Native Win32 interface for Win NT & 2000

Used output format : User Defined Encoder
Selected bitrate : 1024 kBit/s
Quality : High
Add ID3 tag : No
Command line compressor : C:\Program Files (x86)\Exact Audio Copy\wavpack.exe
Additional command line options : -lm %source%


TOC of the extracted CD

Track | Start | Length | Start sector | End sector
––––––––––––––––––––––––––––-
1 | 0:00.00 | 3:02.32 | 0 | 13681
2 | 3:02.32 | 3:08.30 | 13682 | 27811
3 | 6:10.62 | 2:38.73 | 27812 | 39734
4 | 8:49.60 | 2:49.00 | 39735 | 52409
5 | 11:38.60 | 3:05.05 | 52410 | 66289
6 | 14:43.65 | 2:38.40 | 66290 | 78179
7 | 17:22.30 | 2:57.67 | 78180 | 91521
8 | 20:20.22 | 2:48.63 | 91522 | 104184
9 | 23:09.10 | 2:54.35 | 104185 | 117269
10 | 26:03.45 | 2:59.72 | 117270 | 130766
11 | 29:03.42 | 3:28.58 | 130767 | 146424
12 | 32:32.25 | 3:34.30 | 146425 | 162504
13 | 36:06.55 | 2:45.37 | 162505 | 174916
14 | 38:52.17 | 2:41.05 | 174917 | 186996
15 | 41:33.22 | 3:26.63 | 186997 | 202509
16 | 45:00.10 | 2:30.15 | 202510 | 213774
17 | 47:30.25 | 2:58.22 | 213775 | 227146
18 | 50:28.47 | 3:26.33 | 227147 | 242629
19 | 53:55.05 | 2:42.52 | 242630 | 254831
20 | 56:37.57 | 3:46.68 | 254832 | 271849


Range status and errors

Selected range

Filename D:\wwphil\Shocking Blue - Colezo! Twin Best (2CD Victor ‎– VICP-41387-88)\Colezo! Twin Best (CD1)\Shocking Blue - Colezo! Twin Best (CD1).wav

Peak level 100.0 %
Extraction speed 8.7 X
Range quality 100.0 %
Test CRC 6AFEE0A3
Copy CRC 6AFEE0A3
Copy OK

No errors occurred


AccurateRip summary

Track 1 accurately ripped (confidence 5) [7A396C8B] (AR v2)
Track 2 accurately ripped (confidence 5) [D3C8B287] (AR v2)
Track 3 accurately ripped (confidence 5) [DC954434] (AR v2)
Track 4 accurately ripped (confidence 4) [9BADA3F6] (AR v2)
Track 5 accurately ripped (confidence 5) [B75E49BA] (AR v2)
Track 6 accurately ripped (confidence 5) [D26F0176] (AR v2)
Track 7 accurately ripped (confidence 5) [0682C3A6] (AR v2)
Track 8 accurately ripped (confidence 5) [C04B70F8] (AR v2)
Track 9 accurately ripped (confidence 5) [123676E5] (AR v2)
Track 10 accurately ripped (confidence 5) [91FC8CEC] (AR v2)
Track 11 accurately ripped (confidence 5) [E0E9C183] (AR v2)
Track 12 accurately ripped (confidence 4) [793EB863] (AR v2)
Track 13 accurately ripped (confidence 4) [D7550B2C] (AR v2)
Track 14 accurately ripped (confidence 4) [D0731DC1] (AR v2)
Track 15 accurately ripped (confidence 5) [CB856B7F] (AR v2)
Track 16 accurately ripped (confidence 5) [20648FCC] (AR v2)
Track 17 accurately ripped (confidence 5) [C367472A] (AR v2)
Track 18 accurately ripped (confidence 5) [9ED13371] (AR v2)
Track 19 accurately ripped (confidence 5) [06C779C1] (AR v2)
Track 20 accurately ripped (confidence 5) [0671CE3B] (AR v2)

All tracks accurately ripped

End of status report

==== Log checksum A98A294E626738FD9BB4F6AE8CDCBD4850BC27044CE4D6760524E7E84B3039F8 ====

foobar2000 1.3.16 / Dynamic Range Meter 1.1.1
log date: 2018-03-15 02:10:57

––––––––––––––––––––––––––––––––––––––––
Analyzed: Shocking Blue / Colezo! Twin Best (CD1)
––––––––––––––––––––––––––––––––––––––––

DR Peak RMS Duration Track
––––––––––––––––––––––––––––––––––––––––
DR9 -0.18 dB -9.90 dB 3:02 01-Venus
DR8 -0.18 dB -9.49 dB 3:08 02-Mighty Joe
DR7 0.00 dB -8.96 dB 2:39 03-Send Me A Postcard
DR8 -0.18 dB -9.53 dB 2:49 04-Long And Lonesome Road
DR8 -0.18 dB -9.93 dB 3:05 05-Never Marry A Railroadman
DR9 -0.18 dB -10.45 dB 2:39 06-Inkpot
DR8 -0.18 dB -9.93 dB 2:58 07-Rock In The Sea
DR10 -0.18 dB -11.39 dB 2:49 08-Dream On Dreamer
DR9 -0.18 dB -10.19 dB 2:54 09-Hello Darkness
DR8 -0.18 dB -9.20 dB 3:00 10-Shocking You
DR9 -0.18 dB -10.25 dB 3:29 11-Sally Was A Good Old Girl
DR9 -0.18 dB -10.47 dB 3:34 12-Blossom Lady
DR9 -0.18 dB -11.24 dB 2:45 13-Out Of Sight Out Of Mind
DR9 -0.18 dB -10.16 dB 2:41 14-Eve And The Apple
DR10 -0.24 dB -12.24 dB 3:27 15-Let Me Carry Your Bag
DR9 -0.32 dB -10.71 dB 2:30 16-Lord Load
DR9 -0.18 dB -10.34 dB 2:58 17-This America
DR7 -0.93 dB -10.41 dB 3:26 18-Good Times
DR9 -0.18 dB -10.90 dB 2:43 19-Gonna Sing Me A Song
DR9 -0.18 dB -10.44 dB 3:47 20-The Jury And The Judge
––––––––––––––––––––––––––––––––––––––––

Number of tracks: 20
Official DR value: DR9

Samplerate: 44100 Hz
Channels: 2
Bits per sample: 16
Bitrate: 974 kbps
Codec: WavPack
================================================================================

[CUETools log; Date: 15.03.2018 2:10:57; Version: 2.1.6]
[CTDB TOCID: 55cPizoZFxd42VdxgnxaC.Sa9iY-] found.
Track | CTDB Status
1 | (10/11) Accurately ripped
2 | (10/11) Accurately ripped
3 | (11/11) Accurately ripped
4 | ( 9/11) Accurately ripped
5 | (10/11) Accurately ripped
6 | (10/11) Accurately ripped
7 | (10/11) Accurately ripped
8 | (10/11) Accurately ripped
9 | (10/11) Accurately ripped
10 | (10/11) Accurately ripped
11 | (10/11) Accurately ripped
12 | (10/11) Accurately ripped
13 | (10/11) Accurately ripped
14 | ( 9/11) Accurately ripped
15 | (10/11) Accurately ripped
16 | (10/11) Accurately ripped
17 | (10/11) Accurately ripped
18 | (10/11) Accurately ripped
19 | ( 9/11) Accurately ripped
20 | (10/11) Accurately ripped
[AccurateRip ID: 002acec1-02759294-0e0e2814] found.
Track [ CRC | V2 ] Status
01 [885ddc24|7a396c8b] (0+5/5) Accurately ripped
02 [3e4f0735|d3c8b287] (0+5/5) Accurately ripped
03 [44c464c3|dc954434] (0+5/5) Accurately ripped
04 [147a5e4e|9bada3f6] (0+4/4) Accurately ripped
05 [fb8e7a45|b75e49ba] (0+5/5) Accurately ripped
06 [788c49bf|d26f0176] (0+5/5) Accurately ripped
07 [8b22f19a|0682c3a6] (0+5/5) Accurately ripped
08 [7227caab|c04b70f8] (0+5/5) Accurately ripped
09 [1af972bd|123676e5] (0+5/5) Accurately ripped
10 [d0d56f9f|91fc8cec] (0+5/5) Accurately ripped
11 [eaddac60|e0e9c183] (0+5/5) Accurately ripped
12 [7c570e8c|793eb863] (0+4/4) Accurately ripped
13 [c430351e|d7550b2c] (0+4/4) Accurately ripped
14 [ed60ec62|d0731dc1] (0+4/4) Accurately ripped
15 [1d93927f|cb856b7f] (0+5/5) Accurately ripped
16 [67c16a50|20648fcc] (0+5/5) Accurately ripped
17 [714b3e85|c367472a] (0+5/5) Accurately ripped
18 [f51674c5|9ed13371] (0+5/5) Accurately ripped
19 [bb44355b|06c779c1] (0+5/5) Accurately ripped
20 [0bda2ccb|0671ce3b] (0+5/5) Accurately ripped

Track Peak [ CRC32 ] [W/O NULL] [ LOG ]
– 100,0 [6AFEE0A3] [11C5A783] CRC32
01 97,9 [9E592B55] [6ED5F4C5]
02 97,9 [CCC39199] [EC7F5BA0]
03 100,0 [FD933853] [716F1F53]
04 97,9 [B772C688] [70B347D0]
05 97,9 [F0959422] [10F3C759]
06 97,9 [262EBD4F] [001ACB09]
07 97,9 [F595C7F5] [5E6A22AC]
08 97,9 [C587804E] [35B095E9]
09 97,9 [7BDD851D] [C28FFF5A]
10 97,9 [48B020C0] [A6D08613]
11 97,9 [D4C59E7D] [B72F8A58]
12 97,9 [C916E4DB] [7144740C]
13 97,9 [3165C443] [20A6AEE8]
14 97,9 [10AD634E] [B9A02D60]
15 97,3 [1977F59D] [D928E073]
16 96,4 [9ABE32B0] [F05361D5]
17 97,9 [970AE4F3] [3EE184DD]
18 89,8 [A6CDD473] [8C72A5B9]
19 97,9 [7FE93EB4] [130BAEBE]
20 97,9 [3D860268] [815178DF]

Shocking Blue - Twin Best (2005) {Japanese Edition}

Track List CD2:

01. Roll Engine Roll [3:17]
02. Pickin' Tomatoes [3:20]
03. Waterloo [3:25]
04. Harley Davidson [2:39]
05. Fireball Of Love [3:00]
06. Hot Sand [2:38]
07. Wild Wind [2:12]
08. Keep It If You Want It [2:54]
09. Give My Love To The Sunrise [2:26]
10. I Saw You In June [2:24]
11. Is This A Dream [3:47]
12. I Like You [2:12]
13. Broken Heart [2:25]
14. When I Was A Girl [2:27]
15. In My Time Of Dying [3:39]
16. Where The Picknick Was [3:22]
17. I Won't Be Lonely Long [2:58]
18. Come My Way [3:21]
19. Get It On [3:13]
20. I Am Hanging On To Love [2:25]

Exact Audio Copy V1.3 from 2. September 2016

EAC extraction logfile from 10. March 2018, 22:02

Shocking Blue / Colezo! Twin Best (CD2)

Used drive : PLEXTOR DVDR PX-L890SA Adapter: 1 ID: 1

Read mode : Secure
Utilize accurate stream : Yes
Defeat audio cache : Yes
Make use of C2 pointers : No

Read offset correction : 6
Overread into Lead-In and Lead-Out : No
Fill up missing offset samples with silence : Yes
Delete leading and trailing silent blocks : No
Null samples used in CRC calculations : Yes
Used interface : Native Win32 interface for Win NT & 2000

Used output format : User Defined Encoder
Selected bitrate : 1024 kBit/s
Quality : High
Add ID3 tag : No
Command line compressor : C:\Program Files (x86)\Exact Audio Copy\wavpack.exe
Additional command line options : -lm %source%


TOC of the extracted CD

Track | Start | Length | Start sector | End sector
––––––––––––––––––––––––––––-
1 | 0:00.00 | 3:16.47 | 0 | 14746
2 | 3:16.47 | 3:20.23 | 14747 | 29769
3 | 6:36.70 | 3:25.30 | 29770 | 45174
4 | 10:02.25 | 2:38.67 | 45175 | 57091
5 | 12:41.17 | 3:00.25 | 57092 | 70616
6 | 15:41.42 | 2:38.00 | 70617 | 82466
7 | 18:19.42 | 2:12.05 | 82467 | 92371
8 | 20:31.47 | 2:54.05 | 92372 | 105426
9 | 23:25.52 | 2:26.35 | 105427 | 116411
10 | 25:52.12 | 2:23.48 | 116412 | 127184
11 | 28:15.60 | 3:46.47 | 127185 | 144181
12 | 32:02.32 | 2:12.00 | 144182 | 154081
13 | 34:14.32 | 2:24.70 | 154082 | 164951
14 | 36:39.27 | 2:26.48 | 164952 | 175949
15 | 39:06.00 | 3:39.32 | 175950 | 192406
16 | 42:45.32 | 3:21.43 | 192407 | 207524
17 | 46:07.00 | 2:58.22 | 207525 | 220896
18 | 49:05.22 | 3:21.10 | 220897 | 235981
19 | 52:26.32 | 3:12.38 | 235982 | 250419
20 | 55:38.70 | 2:24.62 | 250420 | 261281


Range status and errors

Selected range

Filename D:\wwphil\Shocking Blue - Colezo! Twin Best (2CD Victor ‎– VICP-41387-88)\Colezo! Twin Best (CD2)\Shocking Blue - Colezo! Twin Best (CD2).wav

Peak level 97.9 %
Extraction speed 8.6 X
Range quality 100.0 %
Test CRC 98473CA1
Copy CRC 98473CA1
Copy OK

No errors occurred


AccurateRip summary

Track 1 accurately ripped (confidence 5) [14EA0851] (AR v2)
Track 2 accurately ripped (confidence 5) [FA67F98D] (AR v2)
Track 3 accurately ripped (confidence 5) [B684BC3D] (AR v2)
Track 4 accurately ripped (confidence 4) [080925C2] (AR v2)
Track 5 accurately ripped (confidence 5) [6E96F203] (AR v2)
Track 6 accurately ripped (confidence 5) [A254ACD5] (AR v2)
Track 7 accurately ripped (confidence 4) [076604CC] (AR v2)
Track 8 accurately ripped (confidence 5) [BC9B3406] (AR v2)
Track 9 accurately ripped (confidence 4) [DBAD0D25] (AR v2)
Track 10 accurately ripped (confidence 4) [02D9F287] (AR v2)
Track 11 accurately ripped (confidence 5) [3F12E155] (AR v2)
Track 12 accurately ripped (confidence 5) [EA5520D7] (AR v2)
Track 13 accurately ripped (confidence 5) [A05A66FA] (AR v2)
Track 14 accurately ripped (confidence 5) [38DB205E] (AR v2)
Track 15 accurately ripped (confidence 5) [D14C3BE0] (AR v2)
Track 16 accurately ripped (confidence 5) [CC1BEE2E] (AR v2)
Track 17 accurately ripped (confidence 4) [C2F608AF] (AR v2)
Track 18 accurately ripped (confidence 4) [45237970] (AR v2)
Track 19 accurately ripped (confidence 4) [60D1B44C] (AR v2)
Track 20 accurately ripped (confidence 4) [3D13FA08] (AR v2)

All tracks accurately ripped

End of status report

==== Log checksum 92AAF8C8BDA7028C1580BEA25615DABC4DD57FDAA3E77D49DDE48A84866FD165 ====

foobar2000 1.3.16 / Dynamic Range Meter 1.1.1
log date: 2018-03-15 02:12:53

––––––––––––––––––––––––––––––––––––––––
Analyzed: Shocking Blue / Colezo! Twin Best (CD2)
––––––––––––––––––––––––––––––––––––––––

DR Peak RMS Duration Track
––––––––––––––––––––––––––––––––––––––––
DR8 -0.18 dB -10.05 dB 3:17 01-Roll Engine Roll
DR9 -0.18 dB -10.88 dB 3:20 02-Pickin' Tomatoes
DR8 -0.18 dB -10.07 dB 3:25 03-Waterloo
DR8 -0.18 dB -9.52 dB 2:39 04-Harley Davidson
DR8 -0.18 dB -10.11 dB 3:00 05-Fireball Of Love
DR9 -0.18 dB -10.13 dB 2:38 06-Hot Sand
DR11 -0.18 dB -11.94 dB 2:12 07-Wild Wind
DR9 -0.18 dB -10.02 dB 2:54 08-Keep It If You Want It
DR9 -0.18 dB -11.54 dB 2:26 09-Give My Love To The Sunrise
DR12 -0.18 dB -13.02 dB 2:24 10-I Saw You In June
DR9 -0.18 dB -11.45 dB 3:47 11-Is This A Dream
DR9 -0.18 dB -11.86 dB 2:12 12-I Like You
DR9 -0.18 dB -10.42 dB 2:25 13-Broken Heart
DR9 -0.18 dB -9.95 dB 2:27 14-When I Was A Girl
DR12 -0.18 dB -13.44 dB 3:39 15-In My Time Of Dying
DR8 -0.18 dB -10.27 dB 3:22 16-Where The Picknick Was
DR9 -0.18 dB -10.22 dB 2:58 17-I Won't Be Lonely Long
DR7 -0.40 dB -8.86 dB 3:21 18-Come My Way
DR9 -0.18 dB -10.19 dB 3:13 19-Get It On
DR10 -0.18 dB -12.20 dB 2:25 20-I Am Hanging On To Love
––––––––––––––––––––––––––––––––––––––––

Number of tracks: 20
Official DR value: DR9

Samplerate: 44100 Hz
Channels: 2
Bits per sample: 16
Bitrate: 875 kbps
Codec: WavPack
================================================================================

[CUETools log; Date: 15.03.2018 2:12:31; Version: 2.1.6]
[CTDB TOCID: S_U1WiL_eTaLivOk4qTwtNXo8Ig-] found.
Track | CTDB Status
1 | ( 9/10) Accurately ripped
2 | ( 9/10) Accurately ripped
3 | ( 9/10) Accurately ripped
4 | ( 8/10) Accurately ripped
5 | ( 9/10) Accurately ripped
6 | ( 9/10) Accurately ripped
7 | ( 8/10) Accurately ripped
8 | ( 9/10) Accurately ripped
9 | ( 8/10) Accurately ripped
10 | ( 8/10) Accurately ripped
11 | ( 9/10) Accurately ripped
12 | ( 9/10) Accurately ripped
13 | ( 9/10) Accurately ripped
14 | ( 9/10) Accurately ripped
15 | ( 9/10) Accurately ripped
16 | ( 9/10) Accurately ripped
17 | ( 8/10) Accurately ripped
18 | ( 8/10) Accurately ripped
19 | ( 7/10) Accurately ripped
20 | ( 8/10) Accurately ripped
[AccurateRip ID: 0029f20f-026393ad-200d9b14] found.
Track [ CRC | V2 ] Status
01 [261fcb69|14ea0851] (0+5/5) Accurately ripped
02 [e714d322|fa67f98d] (0+5/5) Accurately ripped
03 [5308cb67|b684bc3d] (0+5/5) Accurately ripped
04 [e56afe7a|080925c2] (0+4/4) Accurately ripped
05 [23a6f6bd|6e96f203] (0+5/5) Accurately ripped
06 [fea6fe98|a254acd5] (0+5/5) Accurately ripped
07 [cd3d01d4|076604cc] (0+4/4) Accurately ripped
08 [f380d3dd|bc9b3406] (0+5/5) Accurately ripped
09 [713fd6e6|dbad0d25] (0+4/4) Accurately ripped
10 [beb85840|02d9f287] (0+4/4) Accurately ripped
11 [e2d5fb2f|3f12e155] (0+5/5) Accurately ripped
12 [f1775956|ea5520d7] (0+5/5) Accurately ripped
13 [4a27393b|a05a66fa] (0+5/5) Accurately ripped
14 [8029e98c|38db205e] (0+5/5) Accurately ripped
15 [1cb0be95|d14c3be0] (0+5/5) Accurately ripped
16 [317780a3|cc1bee2e] (0+5/5) Accurately ripped
17 [2d55be05|c2f608af] (0+4/4) Accurately ripped
18 [12a123f7|45237970] (0+4/4) Accurately ripped
19 [19a8f91d|60d1b44c] (0+4/4) Accurately ripped
20 [33cfb9fb|3d13fa08] (0+4/4) Accurately ripped

Track Peak [ CRC32 ] [W/O NULL] [ LOG ]
– 97,9 [98473CA1] [F987E91F] CRC32
01 97,9 [46C0F5AE] [F6D5BD2C]
02 97,9 [5AD5FEB6] [BFEAACAE]
03 97,9 [AF9DC0E3] [B93DC8FF]
04 97,9 [8E8DD257] [4F35FE5D]
05 97,9 [551BEF29] [D6F90832]
06 97,9 [E24AD4AC] [ED0DB1C2]
07 97,9 [F51914A4] [7D36AB67]
08 97,9 [98DE09AE] [7D5BEE4C]
09 97,9 [8644CAC9] [FE8D7091]
10 97,9 [6118358B] [C25FBBDC]
11 97,9 [7FFA908E] [0D4F0876]
12 97,9 [6888F74F] [47B32D3C]
13 97,9 [9D3DAEF6] [9625CDDA]
14 97,9 [32AFD5D8] [7D7C2AD0]
15 97,9 [3FE77C39] [FBFC2F39]
16 97,9 [EEFA8A6D] [7702E0D7]
17 97,9 [880DD2F1] [B5CB86A7]
18 95,5 [3FC19AA3] [C73016F6]
19 97,9 [F6A237C6] [EC96A62A]
20 97,9 [3CD1D44D] [7D5876EF]

Shocking Blue - Twin Best (2005) {Japanese Edition}

All thanks go to wwphil

>>> Shocking Blue in my Blog <<<

Download from icerbox.com: