Shooting Star - It's Not Over (1991) [Reissue 2008]

Posted By: Andi_Deris
Shooting Star - It's Not Over (1991) [Reissue 2008]

Shooting Star - It's Not Over (1991) [Reissue 2008]
EAC Rip | FLAC: Image+Cue+Log | 356 Mb | MP3 CBR 320 kbps | 120 Mb | Scans | Time: 49:24
Hard Rock | Renaissance Records | RMED0383

It's Not Over is the sixth album by the group Shooting Star. This is the first Shooting Star album not to feature founding members Gary West, Steve Thomas, and Charles Waltz; and the first to feature their replacements: vocalist Keith Mitchell, keyboardist Dennis Laffoon, and drummer Rod Lincoln. It is also the first Shooting Star album to feature original bassist Ron Verlin since 1983's Burning.

Shooting Star - It's Not Over (1991) [Reissue 2008]




Shooting Star - It's Not Over (1991) [Reissue 2008]


Track Listing

01. It's Not Over (04:06)
02. Believe In Me (04:14)
03. We Can't Wait Forever (05:00)
04. Rebel With A Cause (04:04)
05. Dancing On The Edge (05:08)
06. If You've Got Love (04:23)
07. Blame It On The Night (04:48)
08. Get Excited (04:53)
09. Cold Blooded (04:00)
10. Compassion (04:33)
11. Touch Me Tonight (Bonus track) (04:11)

Produced by Van McLain
Remastered by John W. Edwards

The Band

• Keith Mitchel - lead vocals
• Van McLain - guitars, background vocals
• Dennis Laffoon - keyboards, background vocals
• Rod Lincoln - drums
• Ron Verlin - bass guitar

• Donald Brown, Rickey Carter, Baby Lee, Gary Charlson, Jim Bond - additional background vocals

Shooting Star - It's Not Over (1991) [Reissue 2008]


Exact Audio Copy V1.0 beta 3 from 29. August 2011

EAC extraction logfile from 10. November 2015, 21:21

Shooting Star / It's Not Over

Used drive : SlimtypeDVD A DS8A5SH Adapter: 0 ID: 0

Read mode : Secure
Utilize accurate stream : Yes
Defeat audio cache : Yes
Make use of C2 pointers : No

Read offset correction : 6
Overread into Lead-In and Lead-Out : No
Fill up missing offset samples with silence : Yes
Delete leading and trailing silent blocks : No
Null samples used in CRC calculations : Yes
Used interface : Installed external ASPI interface

Used output format : User Defined Encoder
Selected bitrate : 320 kBit/s
Quality : High
Add ID3 tag : No
Command line compressor : C:\Program Files (x86)\Exact Audio Copy\Flac\flac.exe
Additional command line options : -V -8 -T "Date=%year%" -T "Genre=%genre%" %source%


TOC of the extracted CD

Track | Start | Length | Start sector | End sector
––––––––––––––––––––––––––––-
1 | 0:00.00 | 4:06.03 | 0 | 18452
2 | 4:06.03 | 4:14.07 | 18453 | 37509
3 | 8:20.10 | 5:00.60 | 37510 | 60069
4 | 13:20.70 | 4:04.13 | 60070 | 78382
5 | 17:25.08 | 5:08.30 | 78383 | 101512
6 | 22:33.38 | 4:23.42 | 101513 | 121279
7 | 26:57.05 | 4:48.08 | 121280 | 142887
8 | 31:45.13 | 4:53.22 | 142888 | 164884
9 | 36:38.35 | 4:00.60 | 164885 | 182944
10 | 40:39.20 | 4:33.30 | 182945 | 203449
11 | 45:12.50 | 4:10.70 | 203450 | 222269


Range status and errors

Selected range

Filename D:\My Music\Shooting Star - 1991 It's Not Over\Shooting Star - It's Not Over.wav

Peak level 100.0 %
Extraction speed 4.2 X
Range quality 100.0 %
Test CRC F721F4E8
Copy CRC F721F4E8
Copy OK

No errors occurred


AccurateRip summary

Track 1 accurately ripped (confidence 3) [D85E0304] (AR v2)
Track 2 accurately ripped (confidence 3) [6E95E6AE] (AR v2)
Track 3 accurately ripped (confidence 3) [DC3B1455] (AR v2)
Track 4 accurately ripped (confidence 3) [DAA98845] (AR v2)
Track 5 accurately ripped (confidence 3) [2CDB2653] (AR v2)
Track 6 accurately ripped (confidence 3) [E33C9E30] (AR v2)
Track 7 accurately ripped (confidence 3) [8A52CB57] (AR v2)
Track 8 accurately ripped (confidence 3) [181D5F8D] (AR v2)
Track 9 accurately ripped (confidence 3) [FBFF33AF] (AR v2)
Track 10 accurately ripped (confidence 3) [81ABA761] (AR v2)
Track 11 accurately ripped (confidence 3) [F55EE871] (AR v2)

All tracks accurately ripped

End of status report

==== Log checksum 508DA977BAFD02C0050D02D862676D773E95F8CA13298B45BA99C70CAD8BDBC3 ====


Many thanks to the original uploader: kolushew

–––––––––
Nitroflare