Subcategories

Hannu Lintu, Finnish Radio Symphony Orchestra - Sibelius: 7 Symphonies (2015) [Blu-Ray]

Posted By: Vilboa
Hannu Lintu, Finnish Radio Symphony Orchestra - Sibelius: 7 Symphonies (2015) [Blu-Ray]

Hannu Lintu, Finnish Radio Symphony Orchestra - Sibelius: 7 Symphonies (2015) [Blu-Ray]
3xBluRay | BDMV | MPEG-4 AVC Video / 1080i / 29,970 fps | 584 min | 41,2+41,1+39,9 Gb
Audio1: Finnish / LPCM Audio / 2.0 / 48 kHz | Audio2: DTS-HD Master Audio / 5.1 / 48 kHz / 24-bit

BluRay-rip | AVC | MKV 1920x1080 / 6215 kbps / 29,970 fps | 450 min | 24,3 Gb
Audio: DTS / 6ch / 48.0 KHz / 24 bits
Classical | ArtHaus Musik | Sub: English, German, French, Korean, Japanese

With his seven symphonies the Finnish composer Jean Sibelius marks a high point in the symphonic repertoire of the 20th century. The music evokes the ghostliness of the Finnish landscape, carries an inner strength and depth and proves itself full of technical fi nesse that still poses a challenge for both conductors and performers. For Sibelius “a symphony is not a ‘composition’ in the ordinary sense. Rather, it is a declaration of faith at different stages of one’s life.”
On the occasion of Jean Sibelius’ 150th birthday this DVD edition offers the live recordings of the composer’s seven symphonies by the Finnish Radio Symphony Orchestra in the new Helsinki Music Centre under the direction of Hannu Lintu. Each symphony is preceded by a documentary and an introduction, giving a new and modern perspective to the legendary Finnish composer and his symphonies.

Cast:
Finnish Radio Symphony Orchestra
Conductor - Hannu Lintu


Disc 1:
01. Introduction: Young and reckless
02. Symphonic themes
03. Opening
Simphony No 1 in E minor, Op. 39
04. 1. Andante ma non troppo - Allegro energico
05. 2. Andante (ma non troppo lento)
06. 3. Scherzo: Allegro
07. 4. Finale: Quasi una fantasia
08. Credits
09. Introduction: Mediterranean light
10. Symphonic themes
11. Opening
Symphony No 2 in D major, Op 43
12. 1. Allegretto
13. 2. Tempo andante, ma rubato
14. 3. Vivacissimo
15. 4. Finale: Allegro moderato
16. Credits
17. Introduction: A prayer to God
18. Symphonic themes
19. Opening
Symphony No 3 in C major, Op 52
20. 1. Allegro moderato
21. 2. Andantino con moto, quasi allegretto
22. 3. Moderato - Allegro ma non tanto
23. Credits
Disc 2:
01. Introduction: Another world
02. Symphonic themes
03. Opening
Symphony No 4 in A minor, Op 63
04. 1. Tempo molto moderato, quasi adagio
05. 2. Allegro molto vivace
06. 3. Il tempo largo
07. 4. Allegro
08. Credits
09. Introduction: Mosaic pieces from heaven
10. Symphonic themes
11. Opening
Symphony No 5 in E-flat major, Op 82
12. 1. Tempo molto moderato - Allegro moderato (ma poco a poco stretto)
13. 2. Andante mosso, quasi allegretto
14. 3. Allegro molto
15. Credits
16. Introduction: Shadows grow longer
17. Symphonic themes
18. Opening
Symphony No 6 in D minor, Op. 104
19. 1. Allegro molto moderato
20. 2. Allegretto moderato
21. 3. Poco vivace
22. 4. Allegro molto
23. Credits
Disc 3:
01. Introduction: A window into a new world
02. Symphonic themes
03. Opening
Symphony No 7 in C major, Op. 105
04. 1. Fantasia sinfonica
05. Credits
Sibelius, Lintu and 7 Symphonies (Documentary narrated by Hannu Lintu)
06. Introduction
07. Jean Sibelius, Sinfonia No. 1
08. Jean Sibelius, Sinfonia No. 2
09. Jean Sibelius, Sinfonia No. 3
10. Jean Sibelius, Sinfonia No. 4
11. Jean Sibelius, Sinfonia No. 5
12. Jean Sibelius, Sinfonia No. 6
13. Jean Sibelius, Sinfonia No. 7
14. Credits
Sort of Sibelius! (Directed by Piia Hirvensalo)
15. Appearance and personality
16. The genius and nature
17. Health and nerves
18. Money and pleasures
19. Papa and the family
20. Work and inspiration
21. Aino and Janne
22. The difficulty of stopping



Disc Title: SIBELIUS LINTU BD1
Disc Size: 44 341 938 032 bytes
Protection: AACS
BD-Java: No
Playlist: 00004.MPLS
Size: 12 213 411 840 bytes
Length: 0:56:39.696
Total Bitrate: 28,74 Mbps
Video: MPEG-4 AVC Video / 20998 kbps / 1080i / 29,970 fps / 16:9 / High Profile 4.1
Audio: Finnish / LPCM Audio / 2.0 / 48 kHz / 2304 kbps / 24-bit
Audio: Finnish / DTS-HD Master Audio / 5.1 / 48 kHz / 3810 kbps / 24-bit (DTS Core: 5.1 / 48 kHz / 1509 kbps / 24-bit)
Subtitle: English / 15,513 kbps
Subtitle: German / 15,549 kbps
Subtitle: French / 15,771 kbps
Subtitle: Korean / 13,787 kbps
Subtitle: Japanese / 11,204 kbps


General
Unique ID : 171170517002140133304741506341156396204 (0x80C63E0FD4D0B6BBA9B1DA0F3B339CAC)
Complete name : C:\Sibelius_Symphony_1.mkv
Format : Matroska
Format version : Version 2
File size : 4.02 GiB
Duration : 1h 14mn
Overall bit rate : 7 763 Kbps
Movie name : Sibelius_Symphony_1
Encoded date : UTC 2017-01-21 15:38:15
Writing application : DVDFab 9.1.6.8
Writing library : libebml v0.7.8 + libmatroska v0.8.1

Video
ID : 1
Format : AVC
Format/Info : Advanced Video Codec
Format profile : High@L4.1
Format settings, CABAC : Yes
Format settings, ReFrames : 2 frames
Codec ID : V_MPEG4/ISO/AVC
Duration : 1h 14mn
Bit rate : 6 215 Kbps
Width : 1 920 pixels
Height : 1 080 pixels
Display aspect ratio : 16:9
Frame rate mode : Constant
Frame rate : 29.970 fps
Color space : YUV
Chroma subsampling : 4:2:0
Bit depth : 8 bits
Scan type : Progressive
Bits/(Pixel*Frame) : 0.100
Stream size : 3.16 GiB (79%)
Writing library : x264 core 142
Encoding settings : cabac=1 / ref=1 / deblock=1:-1:-1 / analyse=0x3:0 / me=hex / subme=5 / psy=0 / mixed_ref=0 / me_range=16 / chroma_me=1 / trellis=0 / 8x8dct=1 / cqm=0 / deadzone=21,11 / fast_pskip=1 / chroma_qp_offset=0 / threads=8 / lookahead_threads=2 / sliced_threads=0 / nr=0 / decimate=1 / interlaced=0 / bluray_compat=0 / constrained_intra=0 / bframes=2 / b_pyramid=0 / b_adapt=1 / b_bias=0 / direct=1 / weightb=1 / open_gop=0 / weightp=0 / keyint=24 / keyint_min=13 / scenecut=40 / intra_refresh=0 / rc=abr / mbtree=0 / bitrate=6215 / ratetol=1.0 / qcomp=0.60 / qpmin=0 / qpmax=69 / qpstep=4 / ip_ratio=1.40 / pb_ratio=1.30 / aq=1:1.00
Default : Yes
Forced : No
Color primaries : BT.709
Transfer characteristics : BT.709
Matrix coefficients : BT.709
Color range : Limited

Audio
ID : 2
Format : DTS
Format/Info : Digital Theater Systems
Mode : 16
Format settings, Endianness : Big
Codec ID : A_DTS
Duration : 1h 14mn
Bit rate mode : Constant
Bit rate : 1 509 Kbps
Channel(s) : 6 channels
Channel positions : Front: L C R, Side: L R, LFE
Sampling rate : 48.0 KHz
Bit depth : 24 bits
Compression mode : Lossy
Stream size : 800 MiB (19%)
Language : Finnish
Default : Yes
Forced : No

Text #1
ID : 3
Format : VobSub
Codec ID : S_VOBSUB
Codec ID/Info : The same subtitle format used on DVDs
Language : English
Default : Yes
Forced : No

Text #2
ID : 4
Format : VobSub
Codec ID : S_VOBSUB
Codec ID/Info : The same subtitle format used on DVDs
Language : German
Default : No
Forced : No

Text #3
ID : 5
Format : VobSub
Codec ID : S_VOBSUB
Codec ID/Info : The same subtitle format used on DVDs
Language : French
Default : No
Forced : No

Text #4
ID : 6
Format : VobSub
Codec ID : S_VOBSUB
Codec ID/Info : The same subtitle format used on DVDs
Language : Korean
Default : No
Forced : No

Text #5
ID : 7
Format : VobSub
Codec ID : S_VOBSUB
Codec ID/Info : The same subtitle format used on DVDs
Language : Japanese
Default : No
Forced : No

Menu
00:00:00.000 : en:Chapter 01
00:10:29.095 : en:Chapter 02
00:31:05.496 : en:Chapter 03
00:32:00.919 : en:Chapter 04
00:43:46.290 : en:Chapter 05
00:53:28.205 : en:Chapter 06
00:58:57.267 : en:Chapter 07
01:13:19.395 : en:Chapter 08


All screenshots taken from Blu-ray

Hannu Lintu, Finnish Radio Symphony Orchestra - Sibelius: 7 Symphonies (2015) [Blu-Ray]
Hannu Lintu, Finnish Radio Symphony Orchestra - Sibelius: 7 Symphonies (2015) [Blu-Ray]
Hannu Lintu, Finnish Radio Symphony Orchestra - Sibelius: 7 Symphonies (2015) [Blu-Ray]