Subcategories

Hildur Guðnadóttir - Sicario: Day Of The Soldado (Original Motion Picture Soundtrack) (2018)

Posted By: aasana
Hildur Guðnadóttir - Sicario: Day Of The Soldado (Original Motion Picture Soundtrack) (2018)

Hildur Guðnadóttir - Sicario: Day Of The Soldado (Original Motion Picture Soundtrack)(2018)
EAC Rip | FLAC (tracks+.cue+.log+.m3u) & booklet | 36:48 min | 154 MB
Soundtrack | Label: Varese Sarabande

Sicario: Day of the Soldado is the sequel to the globally successful film, Sicario, which earned composer, Johann Johannson an Oscar nomination for Best Score. “Soldado” is composed by Hildur Gudnadottir, a collaborator on the Sicario score, and a well-respected classically trained cello player who has recorded as a solo artist and collaborated with The Knife, Animal Collective, Hauschka, and Fever Ray. The film stars Benicio del Toro and Josh Brolin.

Tracklist:
3:32 | 01. Hildur Guðnadóttir - Attack
1:35 | 02. Hildur Guðnadóttir - The Bomber
2:15 | 03. Hildur Guðnadóttir - Gulf Of Somalia
1:42 | 04. Hildur Guðnadóttir - Miguel Takes Money
2:22 | 05. Hildur Guðnadóttir - Start A War
3:29 | 06. Hildur Guðnadóttir - The Kidnap
1:09 | 07. Hildur Guðnadóttir - Moving Isabelle
4:25 | 08. Hildur Guðnadóttir - Santa Claus
4:44 | 09. Hildur Guðnadóttir - Convoy
2:30 | 10. Hildur Guðnadóttir - Alejandro Saves Isabelle
1:34 | 11. Hildur Guðnadóttir - The Rescue
4:28 | 12. Hildur Guðnadóttir - Journey To Border
1:37 | 13. Hildur Guðnadóttir - The Execution
1:27 | 14. Hildur Guðnadóttir - Survivors

Exact Audio Copy V1.1 from 23. June 2015

EAC extraction logfile from 30. October 2018, 16:06

Hildur Guðnadóttir / Sicario: Day Of The Soldado (Original Motion Picture Soundtrack)

Used drive : slimtype eTDU108 1 Adapter: 1 ID: 0

Read mode : Secure
Utilize accurate stream : Yes
Defeat audio cache : Yes
Make use of C2 pointers : No

Read offset correction : 6
Overread into Lead-In and Lead-Out : No
Fill up missing offset samples with silence : Yes
Delete leading and trailing silent blocks : No
Null samples used in CRC calculations : Yes
Used interface : Native Win32 interface for Win NT & 2000
Gap handling : Appended to previous track

Used output format : User Defined Encoder
Selected bitrate : 1024 kBit/s
Quality : High
Add ID3 tag : No
Command line compressor : C:\Program Files (x86)\Exact Audio Copy\FLAC\FLAC.EXE
Additional command line options : -8 -V -T "ARTIST=%artist%" -T "TITLE=%title%" -T "ALBUM=%albumtitle%" -T "DATE=%year%" -T "TRACKNUMBER=%tracknr%" -T "GENRE=%genre%" -T "COMMENT=%comment%" -T "BAND=%albuminterpret%" -T "ALBUMARTIST=%albuminterpret%" -T "COMPOSER=%composer%" %haslyrics%–tag-from-file=LYRICS="%lyricsfile%"%haslyrics% -T "DISCNUMBER=%cdnumber%" -T "TOTALDISCS=%totalcds%" -T "TOTALTRACKS=%numtracks%" %hascover%–picture="%coverfile%"%hascover% %source% -o %dest%


TOC of the extracted CD

Track | Start | Length | Start sector | End sector
––––––––––––––––––––––––––––-
1 | 0:00.00 | 3:32.20 | 0 | 15919
2 | 3:32.20 | 1:34.61 | 15920 | 23030
3 | 5:07.06 | 2:15.06 | 23031 | 33161
4 | 7:22.12 | 1:42.24 | 33162 | 40835
5 | 9:04.36 | 2:22.20 | 40836 | 51505
6 | 11:26.56 | 3:28.50 | 51506 | 67155
7 | 14:55.31 | 1:08.50 | 67156 | 72305
8 | 16:04.06 | 4:24.42 | 72306 | 92147
9 | 20:28.48 | 4:43.53 | 92148 | 113425
10 | 25:12.26 | 2:30.16 | 113426 | 124691
11 | 27:42.42 | 1:33.39 | 124692 | 131705
12 | 29:16.06 | 4:27.49 | 131706 | 151779
13 | 33:43.55 | 1:36.67 | 151780 | 159046
14 | 35:20.47 | 1:27.37 | 159047 | 165608


Track 1

Filename D:\My Music\barca008\Hildur Guðnadóttir - Sicario Day Of The Soldado\01 - Attack.wav

Pre-gap length 0:00:02.00

Peak level 98.8 %
Extraction speed 2.4 X
Track quality 100.0 %
Test CRC 28450A05
Copy CRC 28450A05
Accurately ripped (confidence 1) [6FF0B30F] (AR v2)
Copy OK

Track 2

Filename D:\My Music\barca008\Hildur Guðnadóttir - Sicario Day Of The Soldado\02 - The Bomber.wav

Peak level 92.4 %
Extraction speed 2.2 X
Track quality 100.0 %
Test CRC D3A38D30
Copy CRC D3A38D30
Accurately ripped (confidence 1) [710A5C65] (AR v2)
Copy OK

Track 3

Filename D:\My Music\barca008\Hildur Guðnadóttir - Sicario Day Of The Soldado\03 - Gulf Of Somalia.wav

Peak level 98.7 %
Extraction speed 1.7 X
Track quality 99.9 %
Test CRC 9219D328
Copy CRC 9219D328
Accurately ripped (confidence 1) [55EE9DAB] (AR v2)
Copy OK

Track 4

Filename D:\My Music\barca008\Hildur Guðnadóttir - Sicario Day Of The Soldado\04 - Miguel Takes Money.wav

Pre-gap length 0:00:00.66

Peak level 61.2 %
Extraction speed 2.4 X
Track quality 100.0 %
Test CRC 87D42D03
Copy CRC 87D42D03
Accurately ripped (confidence 1) [599706AB] (AR v2)
Copy OK

Track 5

Filename D:\My Music\barca008\Hildur Guðnadóttir - Sicario Day Of The Soldado\05 - Start A War.wav

Peak level 94.4 %
Extraction speed 2.7 X
Track quality 100.0 %
Test CRC E9236EF5
Copy CRC E9236EF5
Accurately ripped (confidence 1) [5947D730] (AR v2)
Copy OK

Track 6

Filename D:\My Music\barca008\Hildur Guðnadóttir - Sicario Day Of The Soldado\06 - The Kidnap.wav

Pre-gap length 0:00:00.93

Peak level 94.4 %
Extraction speed 3.1 X
Track quality 100.0 %
Test CRC 3121CEE4
Copy CRC 3121CEE4
Accurately ripped (confidence 1) [3F65A8D9] (AR v2)
Copy OK

Track 7

Filename D:\My Music\barca008\Hildur Guðnadóttir - Sicario Day Of The Soldado\07 - Moving Isabelle.wav

Peak level 94.3 %
Extraction speed 2.4 X
Track quality 100.0 %
Test CRC 3749D044
Copy CRC 3749D044
Accurately ripped (confidence 1) [314F6A44] (AR v2)
Copy OK

Track 8

Filename D:\My Music\barca008\Hildur Guðnadóttir - Sicario Day Of The Soldado\08 - Santa Claus.wav

Pre-gap length 0:00:00.84

Peak level 94.3 %
Extraction speed 3.5 X
Track quality 100.0 %
Test CRC BE65C871
Copy CRC BE65C871
Accurately ripped (confidence 1) [0042ECD6] (AR v2)
Copy OK

Track 9

Filename D:\My Music\barca008\Hildur Guðnadóttir - Sicario Day Of The Soldado\09 - Convoy.wav

Pre-gap length 0:00:00.56

Peak level 94.4 %
Extraction speed 3.8 X
Track quality 100.0 %
Test CRC 38768577
Copy CRC 38768577
Accurately ripped (confidence 1) [9B2BAD09] (AR v2)
Copy OK

Track 10

Filename D:\My Music\barca008\Hildur Guðnadóttir - Sicario Day Of The Soldado\10 - Alejandro Saves Isabelle.wav

Pre-gap length 0:00:00.74

Peak level 34.1 %
Extraction speed 3.6 X
Track quality 100.0 %
Test CRC 7F041896
Copy CRC 7F041896
Accurately ripped (confidence 1) [6D8AD0C8] (AR v2)
Copy OK

Track 11

Filename D:\My Music\barca008\Hildur Guðnadóttir - Sicario Day Of The Soldado\11 - The Rescue.wav

Pre-gap length 0:00:01.16

Peak level 94.4 %
Extraction speed 3.2 X
Track quality 100.0 %
Test CRC B0FCCD56
Copy CRC B0FCCD56
Accurately ripped (confidence 1) [27A0F5BB] (AR v2)
Copy OK

Track 12

Filename D:\My Music\barca008\Hildur Guðnadóttir - Sicario Day Of The Soldado\12 - Journey To Border.wav

Peak level 96.7 %
Extraction speed 4.1 X
Track quality 100.0 %
Test CRC 83359D2D
Copy CRC 83359D2D
Accurately ripped (confidence 1) [EBF60214] (AR v2)
Copy OK

Track 13

Filename D:\My Music\barca008\Hildur Guðnadóttir - Sicario Day Of The Soldado\13 - The Execution.wav

Pre-gap length 0:00:00.62

Peak level 76.0 %
Extraction speed 3.4 X
Track quality 100.0 %
Test CRC CC53F7B0
Copy CRC CC53F7B0
Accurately ripped (confidence 1) [AAE9FE59] (AR v2)
Copy OK

Track 14

Filename D:\My Music\barca008\Hildur Guðnadóttir - Sicario Day Of The Soldado\14 - Survivors.wav

Peak level 94.4 %
Extraction speed 3.3 X
Track quality 100.0 %
Test CRC 9186C98B
Copy CRC 9186C98B
Accurately ripped (confidence 1) [CC056A3C] (AR v2)
Copy OK


All tracks accurately ripped

No errors occurred

End of status report

–– CUETools DB Plugin V2.1.6

[CTDB TOCID: D91dZrTqcKvAggD5MS5Xr2Mcs5Q-] found
Submit result: D91dZrTqcKvAggD5MS5Xr2Mcs5Q- has been confirmed
Track | CTDB Status
1 | (4/4) Accurately ripped
2 | (4/4) Accurately ripped
3 | (4/4) Accurately ripped
4 | (4/4) Accurately ripped
5 | (4/4) Accurately ripped
6 | (4/4) Accurately ripped
7 | (4/4) Accurately ripped
8 | (4/4) Accurately ripped
9 | (4/4) Accurately ripped
10 | (4/4) Accurately ripped
11 | (4/4) Accurately ripped
12 | (4/4) Accurately ripped
13 | (4/4) Accurately ripped
14 | (4/4) Accurately ripped


==== Log checksum 367E9A02FA0AE4594E2E86932049253C83F12D5867F5EF56BAB6D0108EB67F07 ====