Tags
Language
Tags

Sigiswald Kuijken & La Petite Bande Edition [10CDs] (2012)

Posted By: ArlegZ
Sigiswald Kuijken & La Petite Bande Edition [10CDs] (2012)

Sigiswald Kuijken & La Petite Bande Edition [10CDs] (2012)
EAC | FLAC | Image (Cue & Log) ~ 2,55 Gb | Total time: 09:57:31 | Scans included
Classical | Label: Deutsche Harmonia Mundi | # 88691953082 | Recorded: 1974-2002

Das Orchester "La Petite Bande" wurde 1972 von Sigiswald Kuijken gegründet. Ursprünglich war der Anlass der Gründung lediglich eine Tonaufnahme von Le Bourgeois Gentilhomme von Lully. Der Erfolg dieser und der der nachfolgenden Aufnahmen war jedoch so überwältigend, dass "La Petite Bande" sich als ständiges Orchester etablierte und seitdem regelmäßig Konzerte gegeben hat. Diese Box beinhaltet eine Auswahl von hervorragenden 10 CDs aus der umfangreichen Diskographie dieses Orchesters.

Contents:
CD 01: Mozart - Arias & Duets
CD 02: Geminiani - Concerti Grossi
CD 03: J.S. Bach - Cantatas BWV 9, 94 & 187
CD 04: Muffat - Concertos & Suites
CD 05: Haydn - Cello Concertos in C & D; Sinfonia Concertante
CD 06: Haydn - Harmony Mass Hob. XXII No.14; Te Deum Hob.XXIIIc No.2
CD 07: Mozart - Ave verum K.618; Davidde Penitente K.469
CD 08-10: Rameau - Zoroastre


CD 01: Mozart - Arias & Duets
01. Donne mie, la fate e tanti (from Cosi fan tutte, KV 588)
02. Misero! O sogno… Aura che intorno spiri, KV 431
03. Al fato dan legge (from Cosi fan tutte, KV 588)
04. Mentre ti lascio, o figlia, KV 513
05. Si mostra la sorte, KV 209
06. Nach der Welschen Art und Weise (from Die verstelle Gartnerin (1780))
07. Deh, vieni all finestra (from Don Giovanni, KV 527)
08. Un' aura amorosa (from Cosi fan tutte, KV 588)
09. Un basio di mano, KV 541
10. Per pieta, non recercate, KV 420
11. Rivolgete a me lo sguardo (from Cosi fan tutte, KV 588)
12. A te, fra tanti affani (from Davidde Penitente, KV 469)
13. Secondate, aurette amiche (from Cosi fan tutte, KV 588)

Christoph Genz, tenor
Stephan Genz, baritone
La Petite Bande
Sigiswald Kuijken, conductor


CD 02: Geminiani - Concerti Grossi
01. Concerto Grosso Op. 3 No. 3 in E minor: I. Grave - Allegro moderato
02. II. Andante - Allegro
03. Concerto Grosso Op. 2 No. 6 in A major: I. Andante
04. II. (Allegro) - Grave
05. III. Allegro
06. Concerto Grosso Op. 7 No. 2 in D minor: I. Grave
07. II. Allegro assai
08. III. Andante
09. IV. Allegro
10. Concerto Grosso No. 6 in D minor: Theme and 23 Variations on 'La Folia' Op. 5 Nr.12 from A.Corelli
11. Concerto Grosso No. 5 in G minor: I. Adagio
12. II. Vivace - Adagio
13. III. Adagio
14. IV. Allegro
15. Concerto Grosso Op. 2 No. 5 in C minor: I. Andante moderato
16. II. Presto
17. III. Andante
18. IV. Allegro

La Petite Bande
Sigiswald Kuijken, conductor


CD 03: J.S. Bach - Cantatas BWV 9, 94 & 187
01. Kantate BWV 9. Choral: Es ist das Heil uns kommen her
02. Recitativo (Bass): Gott gab uns ein Gesetz
03. Aria (Tenor): Wir waren schon zu tief gesunken
04. Recitativo (Bass): Doch musste das Gesetz erfüllet werden
05. Aria (Duetto Sopran, Alt): Herr, du siehst statt guter Werke
06. Recitativo (Bass): Wenn wir die Sünd aus dem Gesetz erkennen
07. Choral: Ob sichs anließ, als wollt er nicht
08. Kantate BWV 94. Choral: Was frag ich nach der Welt
09. Aria (Bass): Die Welt ist wie ein Rauch und Schatten
10. Recitativo (Tenor) & Choral: Die Welt such Ehr und Ruhm
11. Aria (Alt): Betoerte Welt
12. Recitativo (Bass) & Choral: Die Welt bekümmert sich
13. Aria (Tenor): Die Welt kann ihre Lust und Freud
14. Aria (Sopran): Es halt es mit der blinden Welt
15. Choral: Was frag ich nach der Welt
16. Kantate BWV 187. Choral: Es wartet alles auf dich
17. Recitativo (Bass): Was Kreaturen hält des große Rund der Welt
18. Aria (Alt): Du Herr, du krönst allein das Jahr
19. Basso solo: Darum sollt ihr nicht sorgen noch sagen
20. Aria (Sopran): Gott versorget alles Leben
21. Recitativo (Sopran): Halt mich nur fest
22. Choral: Gott hat die Erde zugericht'

Midori Suzuki, soprano
Magdalena Kožená, mezzo-soprano
Knut Schoch, tenor
Jan Van der Crabben, baritone
La Petite Bande
Sigiswald Kuijken, conductor


CD 04: Muffat - Concertos & Suites
01. Sonata G-dur: I. Allemande - Grave
02. II. Adagio
03. III. Fuga
04. IV. Adagio - Allegro - Adagio
05. V. Ciacona
06. Suite in d «Nobilis juventus»: I. Ouverture
07. II. Entree d'Espagnols
08. III. Air pour les Hollandois
09. IV. Guige Pour les Anglois
10. V. Gavotte pour les Italiens
11. VI. I. Menuet pur des Francois - II. menuet
12. Suite G-dur «Laeta poesis»: I. Overture
13. II. Die Poeten
14. III. Junge Spanier
15. IV. Ein anderes fur dieselbige
16. V. Die in ihren Häfen etwas abrührende Köch
17. VI. Das Fleischgehack
18. VII. Die Kuchen-Jung
19. Sonata G-Moll: I. Sonata: Grave - Allegro
20. II. Grave - Forte e allegro - Grave
21. III. Aria
22. IV. Grave
23. V. Sarabande: Grave
24. VI. Grave
25. VII. Borea: Alla breve

La Petite Bande
Sigiswald Kuijken, conductor


CD 05: Haydn - Cello Concertos in C & D; Sinfonia Concertante
01. Cello-Konzert C-Dur: I. Moderato
02. II. Adagio
03. III. Allegro molto
04. Cello-Konzert D-Dur: I. Allegro molto
05. II. Adagio
06. III. Allegro
07. Sinfonia Concertante: I. Allegro
08. II. Andante
09. III. Allegro con spirito

Hidemi Suzuki, cello
Ryo Teraokado, violin
Patrick Beaugiraud, oboe
Marc Vallon, bassoon
La Petite Bande
Sigiswald Kuijken, conductor


CD 06: Haydn - Harmony Mass Hob. XXII No.14; Te Deum Hob.XXIIIc No.2
01. Harmoniemesse Hob.XXII Nr.14: Kyrie
02. Gloria
03. Gratias
04. Quoniam
05. Credo
06. Et incarnatus
07. Et resurrexit
08. Sanctus
09. Benedictus
10. Agnus Dei
11. Dona nobis pacem
12. Te Deum Hob.XXIIIc Nr.2

Sandrine Piau, soprano
Monika Groop, mezzo-soprano
Christoph Prégardien, tenor
Harry van der Kamp, bass
Chœur de Chambre de Namur
La Petite Bande
Sigiswald Kuijken, conductor


CD 07: Mozart - Ave verum K.618; Davidde Penitente K.469
Davidde penitente, K 469 (1785)
01. Coro: Alzai le flebili voci
02. Coro: Cantiam le glorie
03. Aria Soprano II: Lungi le cure ingrate
04. Coro: Sii pur sempre
05. Duetto Soprano I & II: Sorgi, o Signore
06. Aria Tenore: A te, fra tanti affanni
07. Coro: Se vuoi, puniscimi
08. Aria Soprano I: Fra l'oscure ombre funeste
09. Terzetto Soprano I & II: Tutte le mie speranze
10. Coro: Chi in Dio sol spera
11. Ave verum corpus in D major, K 618

Krisztina Laki, soprano I
Nikole Fallien, soprano II
Hans-Peter Blochwitz, tenor
Nederlands Kamerkoor
La Petite Bande
Sigiswald Kuijken, conductor


CD 08: Rameau - Zoroastre
01. Ouverture
02. Acte premier. Scène 1: À l'heureux Abramane
03. Scène 2: Princesse, avec Phoerés
04. Scène 3: Rassurez-vous tendre Amélite
05. Air tendre en rondeau
06. L'amour pour un coeur
07. Gavotte tendre
08. Cher Zoroastre, hélas!
09. Gavotte en rondeau I/II/I- Air léger
10. Les rayons du soleil
11. Scène 4: C'est vous, chère Érénice?
12. Scène 5 & 6: Entr'acte
13. Acte second. Scène 1: À mes tristes égards
14. Scène 2: Dans cet azile favorable
15. Scène 3: Aux accens de ma voix cieux
16. Enchantemens: Sarabande-Air un peu gay & bien piqué-Gavotte gaye I/II/I
17. Zoroastre vole à la gloire
18. Scène 4: En vain l'innocence crie
19. Scène 5 & 6: Hélas! Je bravois son courroux
CD 09: Rameau - Zoroastre
01. Scène 7: Le ciel, qu'ont attendri mes pleurs
02. Entrée des Peuples - Air majestueux
03. Ah! Que l'absence est un cruel tournement!
04. Menuet I/II/I
05. Non, ce n'est pas toujours
06. Rigaudon I/II/I
07. Cessés de redouter des prêstres criminels
08. Entr'acte
09. Acte troisième. Scène 1: Arrestés. Moderés cette fureur extrême
10. Scène 2: Osons achever de grand crimes
11. Scène 3: Sommeil fu de ce séjour
12. Scène 4 & 5: Sommeil fui de ce séjour
13. Entrée des Peuples différents
14. Mille rayons brillans
15. Loure
16. Accourrées jeunesse brillante
17. Scène 6: Entrée des montagnards
18. Gigue vive
19. Sur nos coeurs épuise tes armes
20. Tambourin en Rondeau
21. Hâtons notre bonheur
22. Scène 7 & 8: Entr'acte
CD 10: Rameau - Zoroastre
01. Acte quatrième. Scène 1: Cruels tyrans, qui régnés dans mon coeur
02. Scène 2: Votre ennemi triomphe
03. Scène 3-4-5: Air grave
04. Scène 6: A ta voix nous quittons
05. Scène 7: Ballet - Air grave
06. Vengez-vous, cessez de souffrir
07. Ballet: Air vif
08. La flamme le consume!
09. Air très vif
10. Ah! Nos fureurs ne sont point vaines
11. Scène 8: Entr'acte - Air très vif
12. Acte cinquième. Scène 1: Quel tourment!
13. Il approche
14. Scène 2-4 & 5: Q'ue la fière Erinice triomphe
15. Scène 6: Par un dernier revers
16. Scène 7: Ballet: Air majestueux
17. Air en rondeau-Mouvement de chaconne
18. Que ces noeuds sont charmants!
19. Scène 8: Entrée des Bergers, Pastres, Peuples, etc. - Andante
20. L'amour vole au son des hautbois
21. Ballet: Première Gavotte - Vive - 2e Gavotte - Première Gavotte - Vive

Zoroastre - John Elwes
Amelite - Greta de Reyghere
Erinice - Miekevan der Sluis
Cephie - Agnès Mellon
Abramane - Gregory Reinhart
Oromases - Jacques Bona
Zopire - Michel Verschaeve
Narbanor - François Fauché
La Vengeance - Philippe Cantor
Collegium Vocale, Gent
La Petite Bande
Leitung - Sigiswald Kuijken




Exact Audio Copy V1.3 from 2. September 2016

EAC extraction logfile from 27. May 2019, 17:35

Christoph & Stephan Genz, Sigiswald Kuijken, La Petite Bande / Mozart - Arias & Duets

Used drive : PIONEER DVD-RW DVR-218L Adapter: 1 ID: 0

Read mode : Secure
Utilize accurate stream : Yes
Defeat audio cache : Yes
Make use of C2 pointers : No

Read offset correction : 6
Overread into Lead-In and Lead-Out : No
Fill up missing offset samples with silence : Yes
Delete leading and trailing silent blocks : No
Null samples used in CRC calculations : Yes
Used interface : Native Win32 interface for Win NT & 2000

Used output format : User Defined Encoder
Selected bitrate : 128 kBit/s
Quality : High
Add ID3 tag : No
Command line compressor : C:\Program Files\Exact Audio Copy\FLAC\FLAC.EXE
Additional command line options : -V -8 -T "Date=%year%" -T "Genre=%genre%" %source%


TOC of the extracted CD

Track | Start | Length | Start sector | End sector
––––––––––––––––––––––––––––-
1 | 0:00.00 | 3:12.46 | 0 | 14445
2 | 3:12.46 | 9:19.69 | 14446 | 56439
3 | 12:32.40 | 1:33.46 | 56440 | 63460
4 | 14:06.11 | 7:31.62 | 63461 | 97347
5 | 21:37.73 | 3:05.56 | 97348 | 111278
6 | 24:43.54 | 3:19.40 | 111279 | 126243
7 | 28:03.19 | 2:10.59 | 126244 | 136052
8 | 30:14.03 | 4:06.34 | 136053 | 154536
9 | 34:20.37 | 2:06.11 | 154537 | 163997
10 | 36:26.48 | 6:33.07 | 163998 | 193479
11 | 42:59.55 | 5:20.30 | 193480 | 217509
12 | 48:20.10 | 6:38.59 | 217510 | 247418
13 | 54:58.69 | 3:30.34 | 247419 | 263202


Range status and errors

Selected range

Filename C:\Program Files\Exact Audio Copy\Flac\Mozart - Arias & Duets.wav

Peak level 93.3 %
Extraction speed 1.8 X
Range quality 100.0 %
Test CRC 9F40291B
Copy CRC 9F40291B
Copy OK

No errors occurred


AccurateRip summary

Track 1 accurately ripped (confidence 18) [E51C1540] (AR v2)
Track 2 accurately ripped (confidence 18) [58B19D13] (AR v2)
Track 3 accurately ripped (confidence 18) [3E2E2AC8] (AR v2)
Track 4 accurately ripped (confidence 17) [7536B8D6] (AR v2)
Track 5 accurately ripped (confidence 18) [2F895EFF] (AR v2)
Track 6 accurately ripped (confidence 19) [C3A6C7BB] (AR v2)
Track 7 accurately ripped (confidence 19) [053A8D8B] (AR v2)
Track 8 accurately ripped (confidence 19) [AACAACC7] (AR v2)
Track 9 accurately ripped (confidence 19) [F9D15376] (AR v2)
Track 10 accurately ripped (confidence 19) [2766F25E] (AR v2)
Track 11 accurately ripped (confidence 18) [6F624AAF] (AR v2)
Track 12 accurately ripped (confidence 19) [3BE7D485] (AR v2)
Track 13 accurately ripped (confidence 19) [4D2557B9] (AR v2)

All tracks accurately ripped

End of status report

==== Log checksum C5A168EA33B1D928143139E5F01A18C473AD21553068BA37A30A5ECEDF73F440 ====


Exact Audio Copy V1.3 from 2. September 2016

EAC extraction logfile from 23. May 2019, 10:17

Sigiswald Kuijken, La Petite Bande / Geminiani - Concerti Grossi

Used drive : PIONEER DVD-RW DVR-218L Adapter: 1 ID: 0

Read mode : Secure
Utilize accurate stream : Yes
Defeat audio cache : Yes
Make use of C2 pointers : No

Read offset correction : 6
Overread into Lead-In and Lead-Out : No
Fill up missing offset samples with silence : Yes
Delete leading and trailing silent blocks : No
Null samples used in CRC calculations : Yes
Used interface : Native Win32 interface for Win NT & 2000

Used output format : User Defined Encoder
Selected bitrate : 128 kBit/s
Quality : High
Add ID3 tag : No
Command line compressor : C:\Program Files\Exact Audio Copy\FLAC\FLAC.EXE
Additional command line options : -V -8 -T "Date=%year%" -T "Genre=%genre%" %source%


TOC of the extracted CD

Track | Start | Length | Start sector | End sector
––––––––––––––––––––––––––––-
1 | 0:00.33 | 3:03.37 | 33 | 13794
2 | 3:03.70 | 5:43.23 | 13795 | 39542
3 | 8:47.18 | 2:11.35 | 39543 | 49402
4 | 10:58.53 | 2:41.42 | 49403 | 61519
5 | 13:40.20 | 2:51.38 | 61520 | 74382
6 | 16:31.58 | 1:23.27 | 74383 | 80634
7 | 17:55.10 | 2:59.68 | 80635 | 94127
8 | 20:55.03 | 1:52.22 | 94128 | 102549
9 | 22:47.25 | 3:11.15 | 102550 | 116889
10 | 25:58.40 | 11:35.55 | 116890 | 169069
11 | 37:34.20 | 2:49.10 | 169070 | 181754
12 | 40:23.30 | 1:48.08 | 181755 | 189862
13 | 42:11.38 | 2:19.50 | 189863 | 200337
14 | 44:31.13 | 1:45.72 | 200338 | 208284
15 | 46:17.10 | 2:08.15 | 208285 | 217899
16 | 48:25.25 | 2:04.33 | 217900 | 227232
17 | 50:29.58 | 1:27.72 | 227233 | 233829
18 | 51:57.55 | 3:48.58 | 233830 | 250987


Range status and errors

Selected range

Filename C:\Program Files\Exact Audio Copy\Flac\Geminiani - Concerti Grossi.wav

Peak level 80.6 %
Extraction speed 1.8 X
Range quality 100.0 %
Test CRC 349BD0D8
Copy CRC 349BD0D8
Copy OK

No errors occurred


AccurateRip summary

Track 1 accurately ripped (confidence 14) [5CBC7E29] (AR v2)
Track 2 accurately ripped (confidence 13) [E9D09155] (AR v2)
Track 3 accurately ripped (confidence 14) [8F88312A] (AR v2)
Track 4 accurately ripped (confidence 14) [ADF2DC39] (AR v2)
Track 5 accurately ripped (confidence 14) [5DD0F668] (AR v2)
Track 6 accurately ripped (confidence 14) [DCC22283] (AR v2)
Track 7 accurately ripped (confidence 14) [5E376277] (AR v2)
Track 8 accurately ripped (confidence 14) [425D8DEC] (AR v2)
Track 9 accurately ripped (confidence 14) [35B18279] (AR v2)
Track 10 accurately ripped (confidence 13) [56B51B50] (AR v2)
Track 11 accurately ripped (confidence 14) [640C1133] (AR v2)
Track 12 accurately ripped (confidence 14) [C191DDE7] (AR v2)
Track 13 accurately ripped (confidence 14) [D1D8ADDC] (AR v2)
Track 14 accurately ripped (confidence 14) [41AD0A74] (AR v2)
Track 15 accurately ripped (confidence 14) [5856144A] (AR v2)
Track 16 accurately ripped (confidence 14) [9A22B00D] (AR v2)
Track 17 accurately ripped (confidence 14) [64DD8620] (AR v2)
Track 18 accurately ripped (confidence 14) [C16C99EC] (AR v2)

All tracks accurately ripped

End of status report

==== Log checksum A4571A1A288A74AF390639CBD10C09C7EFE9F3E2CBB16D67A7C93EA1E069CE46 ====


Exact Audio Copy V1.3 from 2. September 2016

EAC extraction logfile from 27. May 2019, 18:44

Sigiswald Kuijken, La Petite Bande / Bach - Kantaten BWV 9, 94 & 187

Used drive : PIONEER DVD-RW DVR-218L Adapter: 1 ID: 0

Read mode : Secure
Utilize accurate stream : Yes
Defeat audio cache : Yes
Make use of C2 pointers : No

Read offset correction : 6
Overread into Lead-In and Lead-Out : No
Fill up missing offset samples with silence : Yes
Delete leading and trailing silent blocks : No
Null samples used in CRC calculations : Yes
Used interface : Native Win32 interface for Win NT & 2000

Used output format : User Defined Encoder
Selected bitrate : 128 kBit/s
Quality : High
Add ID3 tag : No
Command line compressor : C:\Program Files\Exact Audio Copy\FLAC\FLAC.EXE
Additional command line options : -V -8 -T "Date=%year%" -T "Genre=%genre%" %source%


TOC of the extracted CD

Track | Start | Length | Start sector | End sector
––––––––––––––––––––––––––––-
1 | 0:00.00 | 4:48.64 | 0 | 21663
2 | 4:48.64 | 1:16.73 | 21664 | 27436
3 | 6:05.62 | 5:33.14 | 27437 | 52425
4 | 11:39.01 | 1:14.52 | 52426 | 58027
5 | 12:53.53 | 6:38.08 | 58028 | 87885
6 | 19:31.61 | 1:20.71 | 87886 | 93956
7 | 20:52.57 | 1:07.69 | 93957 | 99050
8 | 22:00.51 | 2:42.30 | 99051 | 111230
9 | 24:43.06 | 2:12.35 | 111231 | 121165
10 | 26:55.41 | 3:59.71 | 121166 | 139161
11 | 30:55.37 | 5:16.06 | 139162 | 162867
12 | 36:11.43 | 2:19.44 | 162868 | 173336
13 | 38:31.12 | 4:35.19 | 173337 | 193980
14 | 43:06.31 | 3:29.26 | 193981 | 209681
15 | 46:35.57 | 1:56.24 | 209682 | 218405
16 | 48:32.06 | 5:28.06 | 218406 | 243011
17 | 54:00.12 | 0:56.69 | 243012 | 247280
18 | 54:57.06 | 3:56.11 | 247281 | 264991
19 | 58:53.17 | 2:12.73 | 264992 | 274964
20 | 61:06.15 | 3:39.02 | 274965 | 291391
21 | 64:45.17 | 1:09.64 | 291392 | 296630
22 | 65:55.06 | 2:28.72 | 296631 | 307802


Range status and errors

Selected range

Filename C:\Program Files\Exact Audio Copy\Flac\Bach - Kantaten BWV 9, 94 & 187.wav

Peak level 97.7 %
Extraction speed 2.1 X
Range quality 100.0 %
Test CRC C9486FE0
Copy CRC C9486FE0
Copy OK

No errors occurred


AccurateRip summary

Track 1 accurately ripped (confidence 21) [9C6E43EE] (AR v2)
Track 2 accurately ripped (confidence 21) [5F0C189D] (AR v2)
Track 3 accurately ripped (confidence 21) [111A221B] (AR v2)
Track 4 accurately ripped (confidence 21) [077460A1] (AR v2)
Track 5 accurately ripped (confidence 21) [008069A4] (AR v2)
Track 6 accurately ripped (confidence 21) [94C03643] (AR v2)
Track 7 accurately ripped (confidence 21) [26FC6064] (AR v2)
Track 8 accurately ripped (confidence 21) [41F87205] (AR v2)
Track 9 accurately ripped (confidence 21) [C7E43DCF] (AR v2)
Track 10 accurately ripped (confidence 21) [4B40C4BA] (AR v2)
Track 11 accurately ripped (confidence 21) [2BF86768] (AR v2)
Track 12 accurately ripped (confidence 21) [D8A21275] (AR v2)
Track 13 accurately ripped (confidence 21) [4D5DAA01] (AR v2)
Track 14 accurately ripped (confidence 21) [43F2B5D0] (AR v2)
Track 15 accurately ripped (confidence 21) [6A75DE5B] (AR v2)
Track 16 accurately ripped (confidence 21) [49D24893] (AR v2)
Track 17 accurately ripped (confidence 21) [FB233A5F] (AR v2)
Track 18 accurately ripped (confidence 21) [BB1ECC19] (AR v2)
Track 19 accurately ripped (confidence 21) [30865719] (AR v2)
Track 20 accurately ripped (confidence 21) [037F59FF] (AR v2)
Track 21 accurately ripped (confidence 21) [8CA493BC] (AR v2)
Track 22 accurately ripped (confidence 20) [55044B2D] (AR v2)

All tracks accurately ripped

End of status report

==== Log checksum 7B04CACA2AC09F7CD039E3A46922C6A0F2447E14BB3E4B9DFFB05C7A1D9B3D8C ====


Exact Audio Copy V1.3 from 2. September 2016

EAC extraction logfile from 27. May 2019, 19:58

Sigiswald Kuijken, La Petite Bande / Muffat - Concertos and suites

Used drive : PIONEER DVD-RW DVR-218L Adapter: 1 ID: 0

Read mode : Secure
Utilize accurate stream : Yes
Defeat audio cache : Yes
Make use of C2 pointers : No

Read offset correction : 6
Overread into Lead-In and Lead-Out : No
Fill up missing offset samples with silence : Yes
Delete leading and trailing silent blocks : No
Null samples used in CRC calculations : Yes
Used interface : Native Win32 interface for Win NT & 2000

Used output format : User Defined Encoder
Selected bitrate : 128 kBit/s
Quality : High
Add ID3 tag : No
Command line compressor : C:\Program Files\Exact Audio Copy\FLAC\FLAC.EXE
Additional command line options : -V -8 -T "Date=%year%" -T "Genre=%genre%" %source%


TOC of the extracted CD

Track | Start | Length | Start sector | End sector
––––––––––––––––––––––––––––-
1 | 0:00.37 | 1:54.53 | 37 | 8639
2 | 1:55.15 | 1:48.67 | 8640 | 16806
3 | 3:44.07 | 1:50.43 | 16807 | 25099
4 | 5:34.50 | 2:21.02 | 25100 | 35676
5 | 7:55.52 | 9:05.20 | 35677 | 76571
6 | 17:00.72 | 2:11.35 | 76572 | 86431
7 | 19:12.32 | 1:19.63 | 86432 | 92419
8 | 20:32.20 | 1:39.12 | 92420 | 99856
9 | 22:11.32 | 1:40.03 | 99857 | 107359
10 | 23:51.35 | 1:46.32 | 107360 | 115341
11 | 25:37.67 | 2:48.35 | 115342 | 127976
12 | 28:26.27 | 4:43.23 | 127977 | 149224
13 | 33:09.50 | 1:26.12 | 149225 | 155686
14 | 34:35.62 | 0:52.38 | 155687 | 159624
15 | 35:28.25 | 1:05.67 | 159625 | 164566
16 | 36:34.17 | 1:21.20 | 164567 | 170661
17 | 37:55.37 | 1:47.03 | 170662 | 178689
18 | 39:42.40 | 1:08.17 | 178690 | 183806
19 | 40:50.57 | 1:50.30 | 183807 | 192086
20 | 42:41.12 | 4:06.25 | 192087 | 210561
21 | 46:47.37 | 1:38.60 | 210562 | 217971
22 | 48:26.22 | 1:12.65 | 217972 | 223436
23 | 49:39.12 | 2:25.25 | 223437 | 234336
24 | 52:04.37 | 2:06.40 | 234337 | 243826
25 | 54:11.02 | 1:10.10 | 243827 | 249086


Range status and errors

Selected range

Filename C:\Program Files\Exact Audio Copy\Flac\Muffat - Concertos and suites.wav

Peak level 97.4 %
Extraction speed 1.8 X
Range quality 100.0 %
Test CRC C17E749F
Copy CRC C17E749F
Copy OK

No errors occurred


AccurateRip summary

Track 1 accurately ripped (confidence 16) [C8DAA42F] (AR v2)
Track 2 accurately ripped (confidence 16) [54B9C016] (AR v2)
Track 3 accurately ripped (confidence 16) [2E0A2082] (AR v2)
Track 4 accurately ripped (confidence 16) [F2D2CB53] (AR v2)
Track 5 accurately ripped (confidence 16) [B3CD902C] (AR v2)
Track 6 accurately ripped (confidence 16) [FC42978E] (AR v2)
Track 7 accurately ripped (confidence 16) [E531CEF5] (AR v2)
Track 8 accurately ripped (confidence 16) [F75A42BC] (AR v2)
Track 9 accurately ripped (confidence 16) [4129886C] (AR v2)
Track 10 accurately ripped (confidence 16) [25915504] (AR v2)
Track 11 accurately ripped (confidence 16) [7568ACAB] (AR v2)
Track 12 accurately ripped (confidence 16) [F4486EBE] (AR v2)
Track 13 accurately ripped (confidence 16) [4024D390] (AR v2)
Track 14 accurately ripped (confidence 16) [9FDA4C20] (AR v2)
Track 15 accurately ripped (confidence 16) [D73B8CB7] (AR v2)
Track 16 accurately ripped (confidence 16) [D7A7F1AD] (AR v2)
Track 17 accurately ripped (confidence 16) [6AD25967] (AR v2)
Track 18 accurately ripped (confidence 16) [C135FDC9] (AR v2)
Track 19 accurately ripped (confidence 16) [AB130188] (AR v2)
Track 20 accurately ripped (confidence 16) [CE37A038] (AR v2)
Track 21 accurately ripped (confidence 16) [59365E80] (AR v2)
Track 22 accurately ripped (confidence 16) [034CD54F] (AR v2)
Track 23 accurately ripped (confidence 16) [C0789B06] (AR v2)
Track 24 accurately ripped (confidence 16) [9FC2B03F] (AR v2)
Track 25 accurately ripped (confidence 16) [45AEC0A7] (AR v2)

All tracks accurately ripped

End of status report

==== Log checksum 72CF05AA89D9E365513EE1401C201D2BB6F61384C14B229BC18FFD48820DEE20 ====


Exact Audio Copy V1.3 from 2. September 2016

EAC extraction logfile from 27. May 2019, 21:11

Sigiswald Kuijken, La Petite Bande, Hidemi Suzuki / Haydn - Cello Concertos & Sinfonia Concertante

Used drive : PIONEER DVD-RW DVR-218L Adapter: 1 ID: 0

Read mode : Secure
Utilize accurate stream : Yes
Defeat audio cache : Yes
Make use of C2 pointers : No

Read offset correction : 6
Overread into Lead-In and Lead-Out : No
Fill up missing offset samples with silence : Yes
Delete leading and trailing silent blocks : No
Null samples used in CRC calculations : Yes
Used interface : Native Win32 interface for Win NT & 2000

Used output format : User Defined Encoder
Selected bitrate : 128 kBit/s
Quality : High
Add ID3 tag : No
Command line compressor : C:\Program Files\Exact Audio Copy\FLAC\FLAC.EXE
Additional command line options : -V -8 -T "Date=%year%" -T "Genre=%genre%" %source%


TOC of the extracted CD

Track | Start | Length | Start sector | End sector
––––––––––––––––––––––––––––-
1 | 0:00.00 | 9:03.06 | 0 | 40730
2 | 9:03.06 | 7:25.73 | 40731 | 74178
3 | 16:29.04 | 6:38.14 | 74179 | 104042
4 | 23:07.18 | 12:43.52 | 104043 | 161319
5 | 35:50.70 | 5:01.54 | 161320 | 183948
6 | 40:52.49 | 4:51.03 | 183949 | 205776
7 | 45:43.52 | 9:15.03 | 205777 | 247404
8 | 54:58.55 | 4:44.69 | 247405 | 268773
9 | 59:43.49 | 6:16.27 | 268774 | 297000


Range status and errors

Selected range

Filename C:\Program Files\Exact Audio Copy\Flac\Haydn - Cello Concertos & Sinfonia Concertante.wav

Peak level 99.9 %
Extraction speed 2.0 X
Range quality 100.0 %
Test CRC FF450E65
Copy CRC FF450E65
Copy OK

No errors occurred


AccurateRip summary

Track 1 accurately ripped (confidence 31) [AB808267] (AR v2)
Track 2 accurately ripped (confidence 31) [8A5D57FC] (AR v2)
Track 3 accurately ripped (confidence 31) [2A594F94] (AR v2)
Track 4 accurately ripped (confidence 31) [E7293209] (AR v2)
Track 5 accurately ripped (confidence 31) [A9DEF883] (AR v2)
Track 6 accurately ripped (confidence 31) [7806B863] (AR v2)
Track 7 accurately ripped (confidence 32) [9E4156BB] (AR v2)
Track 8 accurately ripped (confidence 32) [570A5A86] (AR v2)
Track 9 accurately ripped (confidence 32) [C41BBA72] (AR v2)

All tracks accurately ripped

End of status report

==== Log checksum 1AE2FB19E917E2A7220D75592C44B7918F13EE66225413CB72FB80FE5653DF31 ====


Exact Audio Copy V1.3 from 2. September 2016

EAC extraction logfile from 27. May 2019, 22:18

Sigiswald Kuijken, La Petite Bande, Choeur de Chambre de Namur / Haydn - Harmoniemesse & Te Deum

Used drive : PIONEER DVD-RW DVR-218L Adapter: 1 ID: 0

Read mode : Secure
Utilize accurate stream : Yes
Defeat audio cache : Yes
Make use of C2 pointers : No

Read offset correction : 6
Overread into Lead-In and Lead-Out : No
Fill up missing offset samples with silence : Yes
Delete leading and trailing silent blocks : No
Null samples used in CRC calculations : Yes
Used interface : Native Win32 interface for Win NT & 2000

Used output format : User Defined Encoder
Selected bitrate : 128 kBit/s
Quality : High
Add ID3 tag : No
Command line compressor : C:\Program Files\Exact Audio Copy\FLAC\FLAC.EXE
Additional command line options : -V -8 -T "Date=%year%" -T "Genre=%genre%" %source%


TOC of the extracted CD

Track | Start | Length | Start sector | End sector
––––––––––––––––––––––––––––-
1 | 0:00.00 | 7:44.57 | 0 | 34856
2 | 7:44.57 | 2:13.28 | 34857 | 44859
3 | 9:58.10 | 5:46.05 | 44860 | 70814
4 | 15:44.15 | 3:18.45 | 70815 | 85709
5 | 19:02.60 | 2:58.62 | 85710 | 99121
6 | 22:01.47 | 3:48.08 | 99122 | 116229
7 | 25:49.55 | 4:35.45 | 116230 | 136899
8 | 30:25.25 | 2:51.50 | 136900 | 149774
9 | 33:17.00 | 3:55.40 | 149775 | 167439
10 | 37:12.40 | 3:04.22 | 167440 | 181261
11 | 40:16.62 | 3:06.60 | 181262 | 195271
12 | 43:23.47 | 8:20.33 | 195272 | 232804


Range status and errors

Selected range

Filename C:\Program Files\Exact Audio Copy\Flac\Haydn - Harmoniemesse & Te Deum.wav

Peak level 86.4 %
Extraction speed 1.8 X
Range quality 100.0 %
Test CRC 928D16FA
Copy CRC 928D16FA
Copy OK

No errors occurred


AccurateRip summary

Track 1 accurately ripped (confidence 20) [7924D20D] (AR v2)
Track 2 accurately ripped (confidence 20) [1D623AEB] (AR v2)
Track 3 accurately ripped (confidence 20) [CBC4FB9F] (AR v2)
Track 4 accurately ripped (confidence 20) [C0B0D1C2] (AR v2)
Track 5 accurately ripped (confidence 20) [BB6EB461] (AR v2)
Track 6 accurately ripped (confidence 20) [8A83AF22] (AR v2)
Track 7 accurately ripped (confidence 20) [BFC32E20] (AR v2)
Track 8 accurately ripped (confidence 20) [62EE8DAD] (AR v2)
Track 9 accurately ripped (confidence 20) [2E8B419D] (AR v2)
Track 10 accurately ripped (confidence 20) [E9D29932] (AR v2)
Track 11 accurately ripped (confidence 20) [213AE8BC] (AR v2)
Track 12 accurately ripped (confidence 20) [1BD7B45A] (AR v2)

All tracks accurately ripped

End of status report

==== Log checksum E22A26C7195FE0E48FB6AC76C43CFAFB6B0C3DE94D883C4B0D278D3BD2EDA5AB ====


Exact Audio Copy V1.3 from 2. September 2016

EAC extraction logfile from 27. May 2019, 23:18

Sigiswald Kuijken, La Petite Bande, Nederlands Kamerkoor / Mozart - Davidde Penitente K469, Ave verum corpus K618

Used drive : PIONEER DVD-RW DVR-218L Adapter: 1 ID: 0

Read mode : Secure
Utilize accurate stream : Yes
Defeat audio cache : Yes
Make use of C2 pointers : No

Read offset correction : 6
Overread into Lead-In and Lead-Out : No
Fill up missing offset samples with silence : Yes
Delete leading and trailing silent blocks : No
Null samples used in CRC calculations : Yes
Used interface : Native Win32 interface for Win NT & 2000

Used output format : User Defined Encoder
Selected bitrate : 128 kBit/s
Quality : High
Add ID3 tag : No
Command line compressor : C:\Program Files\Exact Audio Copy\FLAC\FLAC.EXE
Additional command line options : -V -8 -T "Date=%year%" -T "Genre=%genre%" %source%


TOC of the extracted CD

Track | Start | Length | Start sector | End sector
––––––––––––––––––––––––––––-
1 | 0:00.33 | 6:54.50 | 33 | 31132
2 | 6:55.08 | 2:28.00 | 31133 | 42232
3 | 9:23.08 | 4:57.00 | 42233 | 64507
4 | 14:20.08 | 1:18.00 | 64508 | 70357
5 | 15:38.08 | 2:39.00 | 70358 | 82282
6 | 18:17.08 | 7:27.65 | 82283 | 115872
7 | 25:44.73 | 4:56.10 | 115873 | 138082
8 | 30:41.08 | 7:43.45 | 138083 | 172852
9 | 38:24.53 | 3:30.30 | 172853 | 188632
10 | 41:55.08 | 5:17.00 | 188633 | 212407
11 | 47:12.08 | 3:45.15 | 212408 | 229297


Range status and errors

Selected range

Filename C:\Program Files\Exact Audio Copy\Flac\Mozart - Davidde Penitente K469, Ave verum corpus K618.wav

Peak level 95.4 %
Extraction speed 1.7 X
Range quality 100.0 %
Test CRC 3BD8899D
Copy CRC 3BD8899D
Copy OK

No errors occurred


AccurateRip summary

Track 1 accurately ripped (confidence 17) [C1C02AAB] (AR v2)
Track 2 accurately ripped (confidence 18) [72C4DB73] (AR v2)
Track 3 accurately ripped (confidence 18) [A6CC850F] (AR v2)
Track 4 accurately ripped (confidence 18) [F925E7E1] (AR v2)
Track 5 accurately ripped (confidence 18) [31CCB5F6] (AR v2)
Track 6 accurately ripped (confidence 18) [5B01AB65] (AR v2)
Track 7 accurately ripped (confidence 18) [7A15B79A] (AR v2)
Track 8 accurately ripped (confidence 18) [AF201E1E] (AR v2)
Track 9 accurately ripped (confidence 18) [708962B9] (AR v2)
Track 10 accurately ripped (confidence 18) [9C6409BC] (AR v2)
Track 11 accurately ripped (confidence 18) [26E2B2FC] (AR v2)

All tracks accurately ripped

End of status report

==== Log checksum 79A852DBDD8C9007144B8D68EC2DFB06B912A4395B551987CC46450C44631825 ====


Exact Audio Copy V1.3 from 2. September 2016

EAC extraction logfile from 22. May 2019, 21:15

Sigiswald Kuijken, La Petite Bande, Collegium Vocale, Gent / Rameau - Zoroastre CD1

Used drive : PIONEER DVD-RW DVR-218L Adapter: 1 ID: 0

Read mode : Secure
Utilize accurate stream : Yes
Defeat audio cache : Yes
Make use of C2 pointers : No

Read offset correction : 6
Overread into Lead-In and Lead-Out : No
Fill up missing offset samples with silence : Yes
Delete leading and trailing silent blocks : No
Null samples used in CRC calculations : Yes
Used interface : Native Win32 interface for Win NT & 2000

Used output format : User Defined Encoder
Selected bitrate : 128 kBit/s
Quality : High
Add ID3 tag : No
Command line compressor : C:\Program Files\Exact Audio Copy\FLAC\FLAC.EXE
Additional command line options : -V -8 -T "Date=%year%" -T "Genre=%genre%" %source%


TOC of the extracted CD

Track | Start | Length | Start sector | End sector
––––––––––––––––––––––––––––-
1 | 0:00.33 | 4:48.50 | 33 | 21682
2 | 4:49.08 | 4:48.40 | 21683 | 43322
3 | 9:37.48 | 5:16.35 | 43323 | 67057
4 | 14:54.08 | 4:00.60 | 67058 | 85117
5 | 18:54.68 | 1:44.10 | 85118 | 92927
6 | 20:39.03 | 1:17.32 | 92928 | 98734
7 | 21:56.35 | 1:25.70 | 98735 | 105179
8 | 23:22.30 | 3:09.15 | 105180 | 119369
9 | 26:31.45 | 3:42.58 | 119370 | 136077
10 | 30:14.28 | 1:38.27 | 136078 | 143454
11 | 31:52.55 | 1:33.08 | 143455 | 150437
12 | 33:25.63 | 2:56.00 | 150438 | 163637
13 | 36:21.63 | 3:11.70 | 163638 | 178032
14 | 39:33.58 | 3:16.60 | 178033 | 192792
15 | 42:50.43 | 1:13.27 | 192793 | 198294
16 | 44:03.70 | 5:23.65 | 198295 | 222584
17 | 49:27.60 | 3:19.20 | 222585 | 237529
18 | 52:47.05 | 3:32.73 | 237530 | 253502
19 | 56:20.03 | 4:09.40 | 253503 | 272217


Range status and errors

Selected range

Filename C:\Program Files\Exact Audio Copy\Flac\Rameau - Zoroastre CD1.wav

Peak level 91.7 %
Extraction speed 1.8 X
Range quality 100.0 %
Test CRC 4B32334C
Copy CRC 4B32334C
Copy OK

No errors occurred


AccurateRip summary

Track 1 accurately ripped (confidence 14) [7265E257] (AR v2)
Track 2 accurately ripped (confidence 14) [EBC95751] (AR v2)
Track 3 accurately ripped (confidence 14) [64F9198C] (AR v2)
Track 4 accurately ripped (confidence 14) [394241AA] (AR v2)
Track 5 accurately ripped (confidence 14) [362D02EA] (AR v2)
Track 6 accurately ripped (confidence 14) [A96C06F7] (AR v2)
Track 7 accurately ripped (confidence 14) [57DEC39B] (AR v2)
Track 8 accurately ripped (confidence 14) [81423B82] (AR v2)
Track 9 accurately ripped (confidence 14) [2F0CB056] (AR v2)
Track 10 accurately ripped (confidence 14) [851AB18B] (AR v2)
Track 11 accurately ripped (confidence 14) [738341F5] (AR v2)
Track 12 accurately ripped (confidence 14) [682B5C81] (AR v2)
Track 13 accurately ripped (confidence 14) [45D8D2D2] (AR v2)
Track 14 accurately ripped (confidence 14) [98DFC24C] (AR v2)
Track 15 accurately ripped (confidence 14) [60F95BA7] (AR v2)
Track 16 accurately ripped (confidence 14) [D04CEAE8] (AR v2)
Track 17 accurately ripped (confidence 14) [377B1451] (AR v2)
Track 18 accurately ripped (confidence 14) [B072B24E] (AR v2)
Track 19 accurately ripped (confidence 14) [1FA03E92] (AR v2)

All tracks accurately ripped

End of status report

==== Log checksum D4DE947B57FDB28202642A1E13339798AEA68A2E2C5F7571FCF67AF1092B6CFD ====


Exact Audio Copy V1.3 from 2. September 2016

EAC extraction logfile from 22. May 2019, 22:23

Sigiswald Kuijken, La Petite Bande, Collegium Vocale, Gent / Rameau - Zoroastre CD2

Used drive : PIONEER DVD-RW DVR-218L Adapter: 1 ID: 0

Read mode : Secure
Utilize accurate stream : Yes
Defeat audio cache : Yes
Make use of C2 pointers : No

Read offset correction : 6
Overread into Lead-In and Lead-Out : No
Fill up missing offset samples with silence : Yes
Delete leading and trailing silent blocks : No
Null samples used in CRC calculations : Yes
Used interface : Native Win32 interface for Win NT & 2000

Used output format : User Defined Encoder
Selected bitrate : 128 kBit/s
Quality : High
Add ID3 tag : No
Command line compressor : C:\Program Files\Exact Audio Copy\FLAC\FLAC.EXE
Additional command line options : -V -8 -T "Date=%year%" -T "Genre=%genre%" %source%


TOC of the extracted CD

Track | Start | Length | Start sector | End sector
––––––––––––––––––––––––––––-
1 | 0:00.33 | 1:22.00 | 33 | 6182
2 | 1:22.33 | 1:54.27 | 6183 | 14759
3 | 3:16.60 | 2:26.43 | 14760 | 25752
4 | 5:43.28 | 2:42.65 | 25753 | 37967
5 | 8:26.18 | 3:00.05 | 37968 | 51472
6 | 11:26.23 | 3:39.67 | 51473 | 67964
7 | 15:06.15 | 3:42.15 | 67965 | 84629
8 | 18:48.30 | 1:18.40 | 84630 | 90519
9 | 20:06.70 | 4:33.00 | 90520 | 110994
10 | 24:39.70 | 2:49.55 | 110995 | 123724
11 | 27:29.50 | 3:59.73 | 123725 | 141722
12 | 31:29.48 | 0:58.17 | 141723 | 146089
13 | 32:27.65 | 2:22.58 | 146090 | 156797
14 | 34:50.48 | 4:06.05 | 156798 | 175252
15 | 38:56.53 | 2:01.42 | 175253 | 184369
16 | 40:58.20 | 2:29.38 | 184370 | 195582
17 | 43:27.58 | 1:51.30 | 195583 | 203937
18 | 45:19.13 | 2:23.65 | 203938 | 214727
19 | 47:43.03 | 3:23.62 | 214728 | 230014
20 | 51:06.65 | 0:43.73 | 230015 | 233312
21 | 51:50.63 | 5:11.05 | 233313 | 256642
22 | 57:01.68 | 1:14.57 | 256643 | 262249


Range status and errors

Selected range

Filename C:\Program Files\Exact Audio Copy\Flac\Rameau - Zoroastre CD2.wav

Peak level 74.1 %
Extraction speed 1.8 X
Range quality 100.0 %
Test CRC F577DE1E
Copy CRC F577DE1E
Copy OK

No errors occurred


AccurateRip summary

Track 1 accurately ripped (confidence 14) [732921D1] (AR v2)
Track 2 accurately ripped (confidence 14) [729F140C] (AR v2)
Track 3 accurately ripped (confidence 14) [10AD37C3] (AR v2)
Track 4 accurately ripped (confidence 14) [BCA5EEF7] (AR v2)
Track 5 accurately ripped (confidence 14) [5662E97E] (AR v2)
Track 6 accurately ripped (confidence 14) [80D683A6] (AR v2)
Track 7 accurately ripped (confidence 14) [FB3F6F33] (AR v2)
Track 8 accurately ripped (confidence 14) [4D823EF3] (AR v2)
Track 9 accurately ripped (confidence 14) [38BE6CA0] (AR v2)
Track 10 accurately ripped (confidence 14) [7EF9942C] (AR v2)
Track 11 accurately ripped (confidence 14) [3D71041A] (AR v2)
Track 12 accurately ripped (confidence 14) [985482A6] (AR v2)
Track 13 accurately ripped (confidence 14) [2BFBEEE4] (AR v2)
Track 14 accurately ripped (confidence 14) [819A9E06] (AR v2)
Track 15 accurately ripped (confidence 14) [CA0D76B3] (AR v2)
Track 16 accurately ripped (confidence 14) [4FCEFD31] (AR v2)
Track 17 accurately ripped (confidence 14) [1568F6B8] (AR v2)
Track 18 accurately ripped (confidence 14) [B05D9805] (AR v2)
Track 19 accurately ripped (confidence 14) [8F8CB557] (AR v2)
Track 20 accurately ripped (confidence 14) [8DB0D678] (AR v2)
Track 21 accurately ripped (confidence 14) [AA7289D0] (AR v2)
Track 22 accurately ripped (confidence 14) [48376125] (AR v2)

All tracks accurately ripped

End of status report

==== Log checksum DDFF72B14C33FBAF1C06BCF7C1770D5228654DD58A4B5AB7BB012353AA5B3677 ====


Exact Audio Copy V1.3 from 2. September 2016

EAC extraction logfile from 22. May 2019, 23:57

Sigiswald Kuijken, La Petite Bande, Collegium Vocale, Gent / Rameau - Zoroastre CD3

Used drive : PIONEER DVD-RW DVR-218L Adapter: 1 ID: 0

Read mode : Secure
Utilize accurate stream : Yes
Defeat audio cache : Yes
Make use of C2 pointers : No

Read offset correction : 6
Overread into Lead-In and Lead-Out : No
Fill up missing offset samples with silence : Yes
Delete leading and trailing silent blocks : No
Null samples used in CRC calculations : Yes
Used interface : Native Win32 interface for Win NT & 2000

Used output format : User Defined Encoder
Selected bitrate : 128 kBit/s
Quality : High
Add ID3 tag : No
Command line compressor : C:\Program Files\Exact Audio Copy\FLAC\FLAC.EXE
Additional command line options : -V -8 -T "Date=%year%" -T "Genre=%genre%" %source%


TOC of the extracted CD

Track | Start | Length | Start sector | End sector
––––––––––––––––––––––––––––-
1 | 0:00.33 | 2:25.72 | 33 | 10979
2 | 2:26.30 | 8:19.28 | 10980 | 48432
3 | 10:45.58 | 3:53.22 | 48433 | 65929
4 | 14:39.05 | 1:01.25 | 65930 | 70529
5 | 15:40.30 | 2:18.70 | 70530 | 80949
6 | 17:59.25 | 3:48.13 | 80950 | 98062
7 | 21:47.38 | 1:39.45 | 98063 | 105532
8 | 23:27.08 | 1:50.67 | 105533 | 113849
9 | 25:18.00 | 2:43.05 | 113850 | 126079
10 | 28:01.05 | 3:00.58 | 126080 | 139637
11 | 31:01.63 | 1:30.10 | 139638 | 146397
12 | 32:31.73 | 4:17.52 | 146398 | 165724
13 | 36:49.50 | 6:42.10 | 165725 | 195884
14 | 43:31.60 | 1:46.48 | 195885 | 203882
15 | 45:18.33 | 1:32.25 | 203883 | 210807
16 | 46:50.58 | 2:42.35 | 210808 | 222992
17 | 49:33.18 | 1:54.07 | 222993 | 231549
18 | 51:27.25 | 4:17.43 | 231550 | 250867
19 | 55:44.68 | 3:00.37 | 250868 | 264404
20 | 58:45.30 | 3:53.68 | 264405 | 281947
21 | 62:39.23 | 2:48.57 | 281948 | 294604


Range status and errors

Selected range

Filename C:\Program Files\Exact Audio Copy\Flac\Rameau - Zoroastre CD3.wav

Peak level 90.6 %
Extraction speed 2.0 X
Range quality 100.0 %
Test CRC BE9902BF
Copy CRC BE9902BF
Copy OK

No errors occurred


AccurateRip summary

Track 1 accurately ripped (confidence 14) [476B98C0] (AR v2)
Track 2 accurately ripped (confidence 14) [C0D237EF] (AR v2)
Track 3 accurately ripped (confidence 14) [CB87CA2E] (AR v2)
Track 4 accurately ripped (confidence 14) [A8334EEA] (AR v2)
Track 5 accurately ripped (confidence 14) [1B49F92C] (AR v2)
Track 6 accurately ripped (confidence 14) [976053FD] (AR v2)
Track 7 accurately ripped (confidence 14) [E204524F] (AR v2)
Track 8 accurately ripped (confidence 14) [739FE4AD] (AR v2)
Track 9 accurately ripped (confidence 14) [6B677C9C] (AR v2)
Track 10 accurately ripped (confidence 14) [9EB6E408] (AR v2)
Track 11 accurately ripped (confidence 14) [45416206] (AR v2)
Track 12 accurately ripped (confidence 14) [914E583D] (AR v2)
Track 13 accurately ripped (confidence 14) [A9929690] (AR v2)
Track 14 accurately ripped (confidence 14) [E3FAB415] (AR v2)
Track 15 accurately ripped (confidence 14) [22A46821] (AR v2)
Track 16 accurately ripped (confidence 14) [9EE5D236] (AR v2)
Track 17 accurately ripped (confidence 14) [C860DB39] (AR v2)
Track 18 accurately ripped (confidence 14) [433D167E] (AR v2)
Track 19 accurately ripped (confidence 14) [C0582673] (AR v2)
Track 20 accurately ripped (confidence 14) [2BAE0983] (AR v2)
Track 21 accurately ripped (confidence 14) [9C3E477A] (AR v2)

All tracks accurately ripped

End of status report

==== Log checksum 5F09E70F6754EE0DFD41D803560A9EE40540C29538C9EDAD3227216CEDAF20FE ====


Sigiswald Kuijken & La Petite Bande Edition [10CDs] (2012)