Subcategories

Silhouette - Staging The Seventh Wave (2017)

Posted By: popsakov
Silhouette - Staging The Seventh Wave (2017)

Silhouette - Staging The Seventh Wave (2017)
EAC Rip | FLAC (Img) + Cue + Log ~ 566 Mb | MP3 CBR320 ~ 215 Mb
Full Scans | 01:19:07 | RAR 5% Recovery
Progressive Rock | Progress Records #PRCD065

In 2014, Dutch band Silhouette released their fourth studio album, 'Beyond The Seventh Wave'. In 2016, they were filmed and recorded performing the album in its entirety, and this has now been released as a DVD and CD set, along with a few additional songs on the DVD. They wisely had a few additional guests make appearances, the most important of which is an additional guitarist who was there for the whole set, who assisted in providing some additional heaviness to proceedings, allowing Daniel van der Weijde to provide some delicate solos on his seven-string guitar. This is a powerful album, with lots of drama and dynamic shifts in the music as they tell the story of what happens to the main character.

~ Kev Rowland, Prog Archives

***************

Silhouette - Staging The Seventh Wave (2017)

Track List:

01. Prologue [2:31]
02. Betrayed [1:46]
03. Web of Lies part I The Vow [8:31]
04. Web of Lies part II The Plot [4:24]
05. In Solitary [6:17]
06. Escape [5:37]
07. Lost Paradise [10:10]
08. Betrayed Again [1:20]
09. Devils Island [9:12]
10. Beyond the Seventh Wave [7:31]
11. Wings to Fly [5:54]
12. Grendel Memories [5:25]
13. When Snow's Falling Down [10:28]

Personnel:
Brian de Graeve - 12-string acoustic guitar, lead & backing vocals
Daniël Van Der Weijde - electric & acoustic guitars
Erik Laan - keyboards, bass, bass pedals, lead & backing vocals, co-producer
Jurjen Bergsma - bass
Rob van Nieuwenhuijzen - drums, percussion

Exact Audio Copy V1.3 from 2. September 2016

EAC extraction logfile from 16. November 2019, 19:57

Silhouette / Staging the Seventh Wave

Used drive : ASUS DRW-24B1LT Adapter: 1 ID: 2

Read mode : Secure
Utilize accurate stream : Yes
Defeat audio cache : Yes
Make use of C2 pointers : No

Read offset correction : 6
Overread into Lead-In and Lead-Out : No
Fill up missing offset samples with silence : Yes
Delete leading and trailing silent blocks : No
Null samples used in CRC calculations : Yes
Used interface : Native Win32 interface for Win NT & 2000

Used output format : User Defined Encoder
Selected bitrate : 1024 kBit/s
Quality : High
Add ID3 tag : No
Command line compressor : C:\Program Files (x86)\FLAC_1.3.2\win64\flac.exe
Additional command line options : -6 -V -T "ARTIST=%artist%" -T "TITLE=%title%" -T "ALBUM=%albumtitle%" -T "DATE=%year%" -T "TRACKNUMBER=%tracknr%" -T "GENRE=%genre%" -T "COMMENT=ripped by wurensh for rutracker.org" %source% -o %dest%


TOC of the extracted CD

Track | Start | Length | Start sector | End sector
––––––––––––––––––––––––––––-
1 | 0:00.00 | 2:31.28 | 0 | 11352
2 | 2:31.28 | 1:46.16 | 11353 | 19318
3 | 4:17.44 | 8:30.71 | 19319 | 57639
4 | 12:48.40 | 4:23.47 | 57640 | 77411
5 | 17:12.12 | 6:17.10 | 77412 | 105696
6 | 23:29.22 | 5:37.20 | 105697 | 130991
7 | 29:06.42 | 10:09.38 | 130992 | 176704
8 | 39:16.05 | 1:20.13 | 176705 | 182717
9 | 40:36.18 | 9:12.17 | 182718 | 224134
10 | 49:48.35 | 7:30.43 | 224135 | 257927
11 | 57:19.03 | 5:54.32 | 257928 | 284509
12 | 63:13.35 | 5:24.69 | 284510 | 308878
13 | 68:38.29 | 10:28.37 | 308879 | 356015


Range status and errors

Selected range

Filename Y:\EAC\wurensh\Silhouette\Silhouette - Staging the Seventh Wave.wav

Peak level 82.8 %
Extraction speed 10.2 X
Range quality 100.0 %
Test CRC D1B92A86
Copy CRC D1B92A86
Copy OK

No errors occurred


AccurateRip summary

Track 1 accurately ripped (confidence 2) [C9F4485B] (AR v2)
Track 2 accurately ripped (confidence 2) [8C77F880] (AR v2)
Track 3 accurately ripped (confidence 2) [01EF593D] (AR v2)
Track 4 accurately ripped (confidence 2) [7A8007EE] (AR v2)
Track 5 accurately ripped (confidence 2) [0B6CE5F3] (AR v2)
Track 6 accurately ripped (confidence 2) [ACEF9EE7] (AR v2)
Track 7 accurately ripped (confidence 2) [C39BF133] (AR v2)
Track 8 accurately ripped (confidence 2) [52435142] (AR v2)
Track 9 accurately ripped (confidence 2) [80922631] (AR v2)
Track 10 accurately ripped (confidence 2) [A0B39D6A] (AR v2)
Track 11 accurately ripped (confidence 2) [B3AF0159] (AR v2)
Track 12 accurately ripped (confidence 2) [BB8EA42B] (AR v2)
Track 13 accurately ripped (confidence 2) [B461E5D2] (AR v2)

All tracks accurately ripped

End of status report

==== Log checksum 1D511618BD4A39C9E80856CD30DAE4A167FB43AD211FEAC0DE4A74E9CF13C2F3 ====

Silhouette - Staging The Seventh Wave (2017)