Subcategories

Silhouette - The World Is Flat and other alternative facts (2017)

Posted By: popsakov
Silhouette - The World Is Flat and other alternative facts (2017)

Silhouette - The World Is Flat and other alternative facts (2017)
EAC Rip | FLAC (Img) + Cue + Log ~ 338 Mb | MP3 CBR320 ~ 121 Mb
Full Scans (JPG, 300 dpi) ~ 54 Mb | RAR 5% Recovery
Progressive Rock, Symphonic Rock | Progress Records #PRCD066

Silhouette is proud to announce “The World is Flat And Other Alternative Facts”, our fifth studio album. It contains six songs with a total playing time of nearly 50 minutes. The 18 minute long epic “Symphony for a Perfect moment”, consisting of five parts, is the longest song ever written by the band. The album is unusually diverse and adventurous. While still recognizably Silhouette, this musical journey contains influences of not only the founding fathers of progressive rock, but also of contemporary, modern acts. We won’t tell you which ones, you will have to discover for yourself! What we can tell you is that this artistic evolution is obviously due to the growing influence of the younger members of the band, who were more actively involved in the writing and arranging than on previous Silhouette albums.

While The World is Flat is not a concept album like the previous one, lyrically and musically, you will recognize an introspective mood all over the album. “The World is Flat” is foremost a statement about shallowness around us. About the influence of internet trolls, cheating bankers, lying politicians and incomprehensible violence, leading to scared people who don't know whom to trust anymore. Things that should matter don’t seem to matter anymore in public life. Sometimes we feel the strength to stand up against these modern demons. But sometimes we don’t, we cannot take it anymore and we give in to the desire to turn our backs to the flat world. We start searching for existential depth in our private lives, behind the protection of closed blinds in our homes. That is when we discover in the end it is all about living the moment, in the here and now. But also we find that even the most beautiful moments and memories have no meaning unless you can share them with your loved ones.

***************

Silhouette - The World Is Flat and other alternative facts (2017)

Silhouette - The World Is Flat and other alternative facts (2017)

Track List:

01. March Of Peace [5:38]
02. The Flow [8:47]
03. Six Feet Underground [9:36]
04. Symphony For A Perfect Moment [17:56]
05. Sakura [2:51]
06. Turn It Off [5:29]

Personnel:
Brian de Graeve - lead & backing vocals, 12-string guitar
Daniel van der Weijde - electric & acoustic guitars
Erik Laan - keyboards, bass pedals, lead & backing vocals
Jurjen Bergsma - bass, acoustic guitar, backing vocals
Rob van Nieuwenhuijzen - drums, percussion

With:
Joke Laan Morsch - soprano vocals
MarYo - backing vocals
Chantal van den Dungen - flute
Petruschka Schaafsma - oboe
Ger Otten - French horn
Sophie Zaaijer - violin

Exact Audio Copy V1.3 from 2. September 2016

EAC extraction logfile from 4. November 2017, 23:10

Silhouette / THE WORLD IS FLAT and other alternative facts

Used drive : ASUS DRW-24B1LT Adapter: 1 ID: 2

Read mode : Secure
Utilize accurate stream : Yes
Defeat audio cache : Yes
Make use of C2 pointers : No

Read offset correction : 6
Overread into Lead-In and Lead-Out : No
Fill up missing offset samples with silence : Yes
Delete leading and trailing silent blocks : No
Null samples used in CRC calculations : Yes
Used interface : Native Win32 interface for Win NT & 2000

Used output format : User Defined Encoder
Selected bitrate : 1024 kBit/s
Quality : High
Add ID3 tag : Yes
Command line compressor : C:\Program Files (x86)\FLAC_1.3.2\win64\flac.exe
Additional command line options : -6 -V -T "ARTIST=%artist%" -T "TITLE=%title%" -T "ALBUM=%albumtitle%" -T "DATE=%year%" -T "TRACKNUMBER=%tracknr%" -T "GENRE=%genre%" -T "COMMENT=ripped by wurensh for rutracker.org" %source% -o %dest%


TOC of the extracted CD

Track | Start | Length | Start sector | End sector
––––––––––––––––––––––––––––-
1 | 0:00.00 | 5:38.00 | 0 | 25349
2 | 5:38.00 | 8:46.71 | 25350 | 64870
3 | 14:24.71 | 9:35.61 | 64871 | 108056
4 | 24:00.57 | 17:56.26 | 108057 | 188782
5 | 41:57.08 | 2:50.60 | 188783 | 201592
6 | 44:47.68 | 5:29.06 | 201593 | 226273


Range status and errors

Selected range

Filename Y:\EAC\wurensh\Silhouette\Silhouette - THE WORLD IS FLAT and other alternative facts.wav

Peak level 100.0 %
Extraction speed 8.2 X
Range quality 100.0 %
Test CRC D2803185
Copy CRC D2803185
Copy OK

No errors occurred


AccurateRip summary

Track 1 not present in database
Track 2 not present in database
Track 3 not present in database
Track 4 not present in database
Track 5 not present in database
Track 6 not present in database

None of the tracks are present in the AccurateRip database

End of status report

–– CUETools DB Plugin V2.1.6

[CTDB TOCID: APppFva0HT4jqCA0DhXNmREM.7k-] found
Submit result: APppFva0HT4jqCA0DhXNmREM.7k- has been confirmed
Track | CTDB Status
1 | (1/1) Accurately ripped
2 | (1/1) Accurately ripped
3 | (1/1) Accurately ripped
4 | (1/1) Accurately ripped
5 | (1/1) Accurately ripped
6 | (1/1) Accurately ripped


==== Log checksum 5BC58FFFCDB7B891C89D63CC348254119E1E716C7FB0581217826674B2A2CD1B ====

foobar2000 1.3.16 / Dynamic Range Meter 1.1.1
log date: 2017-11-06 01:30:48

––––––––––––––––––––––––––––––––––––––––
Analyzed: Silhouette / THE WORLD IS FLAT and other alternative facts
––––––––––––––––––––––––––––––––––––––––

DR Peak RMS Duration Track
––––––––––––––––––––––––––––––––––––––––
DR8 0.00 dB -10.73 dB 5:38 01-March Of Peace
DR8 0.00 dB -10.39 dB 8:47 02-The Flow
DR9 0.00 dB -10.69 dB 9:36 03-Six Feet Underground
DR9 0.00 dB -10.33 dB 17:56 04-Symphony For A Perfect Moment
DR11 -1.72 dB -14.56 dB 2:51 05-Sakura
DR9 0.00 dB -11.32 dB 5:29 06-Turn It Off
––––––––––––––––––––––––––––––––––––––––

Number of tracks: 6
Official DR value: DR9

Samplerate: 44100 Hz
Channels: 2
Bits per sample: 16
Bitrate: 893 kbps
Codec: FLAC
================================================================================

[CUETools log; Date: 06.11.2017 1:30:20; Version: 2.1.5]
[CTDB TOCID: APppFva0HT4jqCA0DhXNmREM.7k-] found.
Track | CTDB Status
1 | (2/2) Accurately ripped
2 | (2/2) Accurately ripped
3 | (2/2) Accurately ripped
4 | (2/2) Accurately ripped
5 | (2/2) Accurately ripped
6 | (2/2) Accurately ripped
[AccurateRip ID: 000c6f50-00435dd5-520bc806] disk not present in database.

Track Peak [ CRC32 ] [W/O NULL] [ LOG ]
– 100,0 [D2803185] [E1771CFE] CRC32
01 100,0 [C0272A07] [B54EA633]
02 100,0 [3B50B14D] [0DFCB5D6]
03 100,0 [04FC1D73] [1281BE93]
04 100,0 [7CCDB504] [EC10E15A]
05 82,0 [C1299CD5] [569AC840]
06 100,0 [CC8B8047] [A13C6BF3]

Silhouette - The World Is Flat and other alternative facts (2017)

All thanks go to wurensh

>>> My Blog <<<

Download from icerbox.com: