Subcategories

Simon & Garfunkel - Simon and Garfunkel's Greatest Hits (1972) [1987, CBS/Sony 32DP 383, Japan]

Posted By: v3122
Simon & Garfunkel - Simon and Garfunkel's Greatest Hits (1972) [1987, CBS/Sony 32DP 383, Japan]

Simon & Garfunkel - Simon and Garfunkel's Greatest Hits (1972)
EAC | Flac(Image) + Cue + Log & MP3 CBR 320Kbps
CBS/Sony, 32DP 383 | ~ 226 or 105 Mb | Scans(jpg) -> 187 Mb
Folk-Rock / Classic Rock

This album has had over three decades to make an impact, and it says something for its staying power that, in the face of more recent, more generously programmed, and better mastered compilations of the duo's work, it remains one of the most popular parts of the Simon & Garfunkel catalog – which doesn't mean it isn't fraught with frustrations for anyone buying it. Its very existence is something of a fluke – in the spring of 1972, the five original Simon & Garfunkel albums, Wednesday Morning, 3 AM, Sounds of Silence, Parsley, Sage, Rosemary & Thyme, Bookends and Bridge Over Troubled Water, were still selling almost as well as they had in the 1960s; indeed, Bridge Over Troubled Water had carved out a seemingly permanent place for itself on the charts for years; and between the continued radio play of the duo's biggest hits, and the inevitable discovery of their catalog by successive new waves of junior high and high school students, those five LPs stood among the most profitable parts of the Columbia Records back catalog, rivaling Bob Dylan's much larger library in sheer numbers. Columbia might have gone years longer without compiling the duo's hits, but then, in June of 1972, Paul Simon and Art Garfunkel did something totally unexpected – in the midst of Simon's still-emerging solo career (and the careful crafting of his identity as a single act), and Garfunkel's re-identification of himself as an actor, the two reunited for one night, to do a benefit performance at New York's Madison Square Garden for the presidential candidacy of Senator George McGovern. (The latter event also took on a life of its own, as the first widely available Simon & Garfunkel concert bootleg, with terrible sound but capturing for posterity what had to be one of the funniest moments of their stage history, when Simon, attempting to suppress his laughter, remarks in connection with requests being called out, that someone "wants to hear "Voices of Old People" from Bookends). The performance was widely publicized, both before and after the event – McGovern had captured the hearts and imaginations of tens of millions of high school and college students around the United States that spring, and this reviewer can attest to the fact that millions of people who were not at that show felt like they were there in spirit. It was inevitable that Columbia would want to put out a new Simon & Garfunkel release to take advantage of the renewed attention and excitement surrounding the duo, and they probably could have gotten away with a straight greatest-hits collection; but thanks to some inspiration and cooperation between the label and the artists, Greatest Hits went far beyond that. Nine of the tracks on the 14-song LP did, indeed, comprise the duo's biggest hits – including "Bridge Over Troubled Water," "Mrs. Robinson," and "The Sounds of Silence" – in their familiar studio versions; but interspersed between them were previously unheard live recordings of "For Emily, Whenever I May Find Her," "The 59th Street Bridge Song (Feelin' Groovy)," "Homeward Bound," and "Kathy's Song," plus an alternate take of "America." At that time, Simon & Garfunkel had never released a live album, and as it happened, at least four of those five were among the most personal songs in the duo's repertory – songs that millions of fans responded to individually (as opposed to the mass appeal of the pair's hit singles). The fact that they were present as excellent live performances made the appeal of this record irresistible to fans at every level, from the most casual to the most serious and dedicated. It was a sign of just how much they were loved and missed (and, perhaps, needed?) that without anything but that one unrecorded and untelevised benefit show to support its release, the record peaked at number five on the Billboard charts. And a couple of years later, it joined their original five albums as a perennial catalog favorite. And it still holds up – it touches all the right buttons, providing an overview of the duo's most popular songs, but with those live cuts and the "America" outtake to make it essential in its own right, separate from the overview – indeed, it manages to present both the duo's broader history, and their most widely appealing music, and their most intimate work, all seamlessly; only some interesting and ambitious singles that either hadn't stood the test of time ("Fakin' It") or were artistic blind alleys ("The Dangling Conversation"), were missing, along with "Punky's Dilemma," a perennial FM radio favorite that lay just below Columbia Records' and the duo's radar. All of that is the good part about this collection, which ought to get an unqualified rave – the bad part, and the reason that it doesn't get that rave, is the sound quality, which was indifferent on the LP and worse on the CD, with sound that audibly cracks on parts of "The Sounds of Silence" and some of the other early studio cuts; Greatest Hits has begged for a sonic upgrade, and remastering from better sources, for two decades, and Columbia somehow missed the obvious opportunity to do this as part of either its Mastersound and SACD catalogs. It's the one caveat that anyone buying it should bear in mind.

by Bruce Eder, AMG
Simon & Garfunkel - Simon and Garfunkel's Greatest Hits (1972) [1987, CBS/Sony 32DP 383, Japan]


Simon & Garfunkel - Simon and Garfunkel's Greatest Hits (1972):

Simon & Garfunkel - Simon and Garfunkel's Greatest Hits (1972) [1987, CBS/Sony 32DP 383, Japan]

Tracklist:

01. Mrs. Robinson [0:03:51.65]
02. For Emily, Whenever I May Find Her [0:02:24.70]
03. The Boxer [0:05:10.40]
04. The 59th Street Bridge Song (Feelin' Groovy) [0:01:50.50]
05. The Sound Of Silence [0:03:05.62]
06. I Am A Rock [0:02:52.25]
07. Scarborough Fair - Canticle [0:03:09.08]
08. Homeward Bound [0:02:42.47]
09. Bridge Over Troubled Water [0:04:52.20]
10. America [0:03:32.70]
11. Kathy's Song [0:03:23.68]
12. El Condor Pasa (If I Could) [0:03:07.50]
13. Bookends [0:01:20.57]
14. Cecilia [0:02:54.43]

Exact Audio Copy V1.0 beta 3 from 29. August 2011

EAC extraction logfile from 3. August 2016, 21:18

Simon & Garfunkel / Greatest Hits

Used drive : PLEXTOR DVDR PX-L890SA Adapter: 5 ID: 1

Read mode : Secure
Utilize accurate stream : Yes
Defeat audio cache : Yes
Make use of C2 pointers : No

Read offset correction : 6
Overread into Lead-In and Lead-Out : No
Fill up missing offset samples with silence : Yes
Delete leading and trailing silent blocks : No
Null samples used in CRC calculations : Yes
Used interface : Native Win32 interface for Win NT & 2000

Used output format : User Defined Encoder
Selected bitrate : 768 kBit/s
Quality : High
Add ID3 tag : No
Command line compressor : C:\Program Files (x86)\Exact Audio Copy\Flac\flac.exe
Additional command line options : -V -8 -T "Date=%year%" -T "Genre=%genre%" %source%


TOC of the extracted CD

Track | Start | Length | Start sector | End sector
––––––––––––––––––––––––––––-
1 | 0:00.00 | 3:51.65 | 0 | 17389
2 | 3:51.65 | 2:24.70 | 17390 | 28259
3 | 6:16.60 | 5:10.40 | 28260 | 51549
4 | 11:27.25 | 1:50.50 | 51550 | 59849
5 | 13:18.00 | 3:05.62 | 59850 | 73786
6 | 16:23.62 | 2:52.25 | 73787 | 86711
7 | 19:16.12 | 3:09.08 | 86712 | 100894
8 | 22:25.20 | 2:42.47 | 100895 | 113091
9 | 25:07.67 | 4:52.20 | 113092 | 135011
10 | 30:00.12 | 3:32.70 | 135012 | 150981
11 | 33:33.07 | 3:23.68 | 150982 | 166274
12 | 36:57.00 | 3:07.50 | 166275 | 180349
13 | 40:04.50 | 1:20.57 | 180350 | 186406
14 | 41:25.32 | 2:54.43 | 186407 | 199499


Range status and errors

Selected range

Filename H:\MUSIC\1972. Simon & Garfunkel - Greatest Hits (CBS-Sony 32DP 383, Japan)\Simon & Garfunkel - Greatest Hits.wav

Peak level 94.3 %
Extraction speed 8.1 X
Range quality 99.9 %
Test CRC 2BDE40FF
Copy CRC 2BDE40FF
Copy OK

No errors occurred


AccurateRip summary

Track 1 accurately ripped (confidence 8) [B3BFE3E9] (AR v2)
Track 2 accurately ripped (confidence 8) [A7A44164] (AR v2)
Track 3 accurately ripped (confidence 8) [976FD993] (AR v2)
Track 4 accurately ripped (confidence 8) [D028E937] (AR v2)
Track 5 accurately ripped (confidence 8) [D096ACB4] (AR v2)
Track 6 accurately ripped (confidence 8) [0A91C62E] (AR v2)
Track 7 accurately ripped (confidence 8) [04D6BF4D] (AR v2)
Track 8 accurately ripped (confidence 8) [FAFCF472] (AR v2)
Track 9 accurately ripped (confidence 8) [35C50749] (AR v2)
Track 10 accurately ripped (confidence 8) [25D3426C] (AR v2)
Track 11 accurately ripped (confidence 8) [1D3DF4D3] (AR v2)
Track 12 accurately ripped (confidence 8) [AA339572] (AR v2)
Track 13 accurately ripped (confidence 8) [E140D04F] (AR v2)
Track 14 accurately ripped (confidence 8) [38D9C27C] (AR v2)

All tracks accurately ripped

End of status report

==== Log checksum 2D73FC5793C6D4654BC793A573093CD35292EED2CDF0E5FF27B231AEB4C0161C ====

foobar2000 1.3.9 / Замер динамического диапазона (DR) 1.1.1
Дата отчёта: 2016-08-07 14:38:07

––––––––––––––––––––––––––––––––––––––––
Анализ: Simon & Garfunkel / Greatest Hits
––––––––––––––––––––––––––––––––––––––––

DR Пики RMS Продолжительность трека
––––––––––––––––––––––––––––––––––––––––
DR12 -2.04 дБ -17.69 дБ 3:52 01-Mrs. Robinson
DR11 -4.02 дБ -20.13 дБ 2:25 02-For Emily, Whenever I May Find Her
DR11 -2.13 дБ -17.33 дБ 5:11 03-The Boxer
DR11 -5.96 дБ -22.01 дБ 1:51 04-The 59th Street Bridge Song (Feelin' Groovy)
DR10 -5.66 дБ -19.15 дБ 3:06 05-The Sound Of Silence
DR10 -2.43 дБ -15.55 дБ 2:52 06-I Am A Rock
DR10 -4.35 дБ -18.59 дБ 3:09 07-Scarborough Fair - Canticle
DR11 -1.59 дБ -19.93 дБ 2:43 08-Homeward Bound
DR11 -0.64 дБ -16.86 дБ 4:52 09-Bridge Over Troubled Water
DR12 -0.50 дБ -18.42 дБ 3:33 10-America
DR12 -6.56 дБ -22.35 дБ 3:24 11-Kathy's Song
DR11 -3.36 дБ -19.05 дБ 3:08 12-El Condor Pasa (If I Could)
DR13 -8.37 дБ -26.11 дБ 1:21 13-Bookends
DR12 -1.24 дБ -16.35 дБ 2:55 14-Cecilia
––––––––––––––––––––––––––––––––––––––––

Количество треков: 14
Реальные значения DR: DR11

Частота: 44100 Гц
Каналов: 2
Разрядность: 16
Битрейт: 691 кбит/с
Кодек: FLAC

[CUETools log; Date: 07.08.2016 14:37:58; Version: 2.1.2a]
[CTDB TOCID: sDE_gdlU4Q47xnEvsewvhLv.3rE-] found.
[ CTDBID ] Status
[dc8a0537] (9/9) Accurately ripped
[AccurateRip ID: 0017a6ee-00fb0c43-c00a640e] found.
Track [ CRC ] Status
01 [c271cecf] (02/10) Accurately ripped
02 [961a6b3f] (02/10) Accurately ripped
03 [2f775258] (02/10) Accurately ripped
04 [c918882b] (02/10) Accurately ripped
05 [52573600] (02/10) Accurately ripped
06 [9682cf5f] (02/10) Accurately ripped
07 [83d97764] (02/10) Accurately ripped
08 [68895b28] (02/10) Accurately ripped
09 [184a666b] (02/10) Accurately ripped
10 [8530cfb0] (02/10) Accurately ripped
11 [fcb68f8f] (02/10) Accurately ripped
12 [a027e437] (02/10) Accurately ripped
13 [c7ebdd6b] (02/10) Accurately ripped
14 [4430c424] (02/10) Accurately ripped
AccurateRip v2:
01 [b3bfe3e9] (08/10) Accurately ripped
02 [a7a44164] (08/10) Accurately ripped
03 [976fd993] (08/10) Accurately ripped
04 [d028e937] (08/10) Accurately ripped
05 [d096acb4] (08/10) Accurately ripped
06 [0a91c62e] (08/10) Accurately ripped
07 [04d6bf4d] (08/10) Accurately ripped
08 [fafcf472] (08/10) Accurately ripped
09 [35c50749] (08/10) Accurately ripped
10 [25d3426c] (08/10) Accurately ripped
11 [1d3df4d3] (08/10) Accurately ripped
12 [aa339572] (08/10) Accurately ripped
13 [e140d04f] (08/10) Accurately ripped
14 [38d9c27c] (08/10) Accurately ripped

Track Peak [ CRC32 ] [W/O NULL] [ LOG ]
– 94,3 [2BDE40FF] [B4CC2793] CRC32
01 79,0 [39843EF5] [492EE882]
02 62,9 [ED20FDC5] [D9D30E28]
03 78,2 [8ED43C7E] [40F06B19]
04 50,3 [4951344D] [97302843]
05 52,1 [13BAF1D8] [870E1172]
06 75,6 [9CAE62A3] [6DECCC62]
07 60,6 [EBFB6D06] [76A7A759]
08 83,2 [C7482000] [EA984B29]
09 92,8 [C27D7F11] [84E32E47]
10 94,3 [E9AAF4DE] [693708EB]
11 46,9 [E01A8FDB] [DD7F87C3]
12 67,9 [2C986A1E] [2931A682]
13 38,1 [B8838B1B] [6FD290BB]
14 86,6 [50D2192D] [F521BE72]

Simon & Garfunkel - Simon and Garfunkel's Greatest Hits (1972) [1987, CBS/Sony 32DP 383, Japan]

All thanks go to snakesharmer

Simon & Garfunkel in my Blog

Download Simon & Garfunkel - Simon and Garfunkel's Greatest Hits (1972):