Subcategories

Simon & Garfunkel - Parsley, Sage, Rosemary, and Thyme (1966) [Audio Fidelity, AFZ 075]

Posted By: v3122
Simon & Garfunkel - Parsley, Sage, Rosemary, and Thyme (1966) [Audio Fidelity, AFZ 075]

Simon & Garfunkel - Parsley, Sage, Rosemary, and Thyme (1966)
EAC | Flac(Image) + Cue + Log & MP3 CBR 320Kbps
2010 | Audio Fidelity, AFZ 075 | ~ 155 or 68 Mb | Scans(jpg) -> 32 Mb
Folk Rock

Simon & Garfunkel's first masterpiece, Parsley, Sage, Rosemary and Thyme was also the first album on which the duo, in tandem with engineer Roy Halee, exerted total control from beginning to end, right down to the mixing, and it is an achievement akin to the Beatles' Revolver or the Beach Boys' Pet Sounds album, and just as personal and pointed as either of those records at their respective bests. After the frantic rush to put together an LP in just three weeks that characterized the Sounds of Silence album early in 1966, Parsley, Sage, Rosemary and Thyme came together over a longer gestation period of about three months, an uncommonly extended period of recording in those days, but it gave the duo a chance to develop and shape the songs the way they wanted them. The album opens with one of the last vestiges of Paul Simon's stay in England, "Scarborough Fair/Canticle" – the latter was the duo's adaptation of a centuries-old English folk song in an arrangement that Simon had learned from Martin Carthy. The two transformed the song into a daunting achievement in the studio, however, incorporating myriad vocal overdubs and utilizing a harpsichord, among other instruments, to embellish it, and also wove into its structure Simon's "The Side of a Hill," a gentle antiwar song that he had previously recorded on The Paul Simon Songbook in England. The sonic results were startling on their face, a record that was every bit as challenging in its way as "Good Vibrations," but the subliminal effect was even more profound, mixing a hauntingly beautiful antique melody, and a song about love in a peaceful, domestic setting, with a message about war and death; Simon & Garfunkel were never as political as, say, Peter, Paul & Mary or Joan Baez, but on this record they did bring the Vietnam war home.
The rest of the album was less imposing but just as beguiling – audiences could revel in the play of Simon's mind (and Simon & Garfunkel's arranging skills) and his sense of wonder (and frustration) on "Patterns," and appreciate the sneering rock & roll-based social commentary "The Big Bright Green Pleasure Machine." Two of the most beautiful songs ever written about the simple joys of living, the languid "Cloudy" and bouncy "The 59th Street Bridge Song (Feelin' Groovy)," were no less seductive, and the album also included "Homeward Bound," their Top Five hit follow-up to "The Sound of Silence," which had actually been recorded at the sessions for that LP. No Simon & Garfunkel song elicits more difference of opinion than "The Dangling Conversation," making its LP debut here – one camp regards it as hopelessly pretentious and precious in its literary name-dropping and rich string orchestra accompaniment, while another holds it as a finely articulate account of a couple grown distant and disconnected through their intellectual pretensions; emotionally, it is definitely the precursor to the more highly regarded "Overs" off the next album, and it resonated well on college campuses at the time, evoking images of graduate school couples drifting apart, but for all the beauty of the singing and the arrangement, it also seemed far removed from the experience of teenagers or any listeners not living a life surrounded by literature ("couplets out of rhyme" indeed!), and understandably only made the Top 30 on AM radio. "For Emily, Whenever I May Find Her" was a romantic idyll that presented Art Garfunkel at his most vulnerable sounding, anticipating such solo releases of his as "All I Know," while "Flowers Never Bend With the Rainfall" was Simon at his most reflectively philosophical, dealing with age and its changes much as "Patterns" dealt with the struggle to change, with a dissonant note (literally) at the end that anticipated the style of the duo's next album.
"A Simple Desultory Philippic," which also started life in England more than a year earlier, was the team's Dylanesque fuzz tone-laden jape at folk-rock, and a statement of who they weren't, and remains, alongside Peter, Paul & Mary's "I Dig Rock & Roll Music," one of the best satires of its kind. And the last of Simon's English-period songs, "A Poem on the Underground Wall," seemed to sum up the tightrope walk that the duo did at almost every turn on this record at this point in their career – built around a beautiful melody and gorgeous hooks, it was, nonetheless, a study in personal privation and desperation, the "sound of silence" heard from the inside out, a voice crying out. Brilliantly arranged in a sound that was as much rock as film music, but with the requisite acoustic guitars, and displaying a dazzling command and range of language, it could have ended the album. Instead, the duo offered "7 O'Clock News/Silent Night," a conceptual work that was a grim and ironic (and prophetic) comment on the state of the United States in 1966. In retrospect, it dated the album somewhat, but that final track, among the darkest album-closers of the 1960s, also proved that Simon & Garfunkel weren't afraid to get downbeat as well as serious for a purpose. Overall, Parsley, Sage, Rosemary and Thyme was the duo's album about youthful exuberance and alienation, and it proved perennially popular among older, more thoughtful high-school students and legions of college audiences across generations.

by Bruce Eder, allmusic
Simon & Garfunkel - Parsley, Sage, Rosemary, and Thyme (1966) [Audio Fidelity, AFZ 075]


Simon & Garfunkel - Parsley, Sage, Rosemary, and Thyme (1966):

Simon & Garfunkel - Parsley, Sage, Rosemary, and Thyme (1966) [Audio Fidelity, AFZ 075]

Tracklist:

01. Scarborough Fair \ Canticle [03:11]
02. Patterns [02:45]
03. Cloudy [02:15]
04. Homeward Bound [02:31]
05. The Big Bright Green Pleasure Machine [02:45]
06. The 59th Street Bridge Song (Feelin' Groovy) [01:47]
07. The Dangling Conversation [02:40]
08. Flowers Never Bend with the Rainfall [02:14]
09. A Simple Desultory Philippic (Or How I Was Rober McNamara'd Into Submission) [02:15]
10. For Emily, Whenever I May Find Her [02:06]
11. A Poem on the Underground Wall [01:57]
12. 7 O'Clock News \ Silent Night [02:00]

Exact Audio Copy V0.99 prebeta 5 from 4. May 2009

EAC extraction logfile from 12. March 2014, 17:32

SIMON AND GARFUNKEL / Parsley, Sage, Rosemary, and Thyme ( AFZ 075 )

Used drive : ASUS DRW-24B3ST Adapter: 4 ID: 0

Read mode : Secure
Utilize accurate stream : Yes
Defeat audio cache : Yes
Make use of C2 pointers : No

Read offset correction : 6
Overread into Lead-In and Lead-Out : No
Fill up missing offset samples with silence : Yes
Delete leading and trailing silent blocks : No
Null samples used in CRC calculations : Yes
Used interface : Native Win32 interface for Win NT & 2000

Used output format : User Defined Encoder
Selected bitrate : 1024 kBit/s
Quality : High
Add ID3 tag : No
Command line compressor : C:\Program Files (x86)\EAC\WV\wavpack.exe
Additional command line options : -h -hh -m %s %d


TOC of the extracted CD

Track | Start | Length | Start sector | End sector
––––––––––––––––––––––––––––-
1 | 0:00.00 | 3:11.24 | 0 | 14348
2 | 3:11.24 | 2:45.04 | 14349 | 26727
3 | 5:56.28 | 2:15.15 | 26728 | 36867
4 | 8:11.43 | 2:31.60 | 36868 | 48252
5 | 10:43.28 | 2:45.66 | 48253 | 60693
6 | 13:29.19 | 1:47.74 | 60694 | 68792
7 | 15:17.18 | 2:40.63 | 68793 | 80855
8 | 17:58.06 | 2:14.10 | 80856 | 90915
9 | 20:12.16 | 2:15.72 | 90916 | 101112
10 | 22:28.13 | 2:06.12 | 101113 | 110574
11 | 24:34.25 | 1:57.11 | 110575 | 119360
12 | 26:31.36 | 2:00.01 | 119361 | 128361


Range status and errors

Selected range

Filename G:\24 KT GOLD\SIMON AND GARFUNKEL - Parsley, Sage, Rosemary, and Thyme (1966) (US 2010 Audio Fidelity • AFZ 075)\SIMON AND GARFUNKEL - Parsley, Sage, Rosemary, and Thyme ( AFZ 075 ).wav

Peak level 100.0 %
Range quality 100.0 %
Test CRC 2D9D3F96
Copy CRC 2D9D3F96
Copy OK

No errors occurred


AccurateRip summary

Track 1 accurately ripped (confidence 31) [62E1BB61]
Track 2 accurately ripped (confidence 31) [82B2506E]
Track 3 accurately ripped (confidence 31) [32F1933D]
Track 4 accurately ripped (confidence 31) [A8ADFC28]
Track 5 accurately ripped (confidence 31) [341AF93F]
Track 6 accurately ripped (confidence 31) [E0CAFFB1]
Track 7 accurately ripped (confidence 31) [C8C8E116]
Track 8 accurately ripped (confidence 31) [1D885340]
Track 9 accurately ripped (confidence 31) [A0D0F976]
Track 10 accurately ripped (confidence 31) [EE848171]
Track 11 accurately ripped (confidence 31) [9E16B4D7]
Track 12 accurately ripped (confidence 31) [C1E71532]

All tracks accurately ripped

End of status report

foobar2000 1.2.9 / Dynamic Range Meter 1.1.1
log date: 2017-03-16 17:56:38

––––––––––––––––––––––––––––––––––––––––
Analyzed: SIMON AND GARFUNKEL / Parsley, Sage, Rosemary, and Thyme ( AFZ 075 )
––––––––––––––––––––––––––––––––––––––––

DR Peak RMS Duration Track
––––––––––––––––––––––––––––––––––––––––
DR10 -0.90 dB -15.63 dB 3:11 01-Scarborough Fair \ Canticle
DR12 0.00 dB -15.54 dB 2:45 02-Patterns
DR11 -0.56 dB -16.45 dB 2:15 03-Cloudy
DR11 -0.41 dB -14.89 dB 2:32 04-Homeward Bound
DR11 -0.61 dB -14.25 dB 2:46 05-The Big Bright Green Pleasure Machine
DR11 -1.47 dB -14.78 dB 1:48 06-The 59th Street Bridge Song (Feelin' Groovy)
DR11 -0.62 dB -15.39 dB 2:41 07-The Dangling Conversation
DR10 -2.44 dB -15.06 dB 2:14 08-Flowers Never Bend with the Rainfall
DR12 -1.65 dB -15.22 dB 2:16 09-A Simple Desultory Philippic (Or How I Was Rober McNamara'd Into Submission)
DR10 -0.87 dB -16.92 dB 2:06 10-For Emily, Whenever I May Find Her
DR11 -0.80 dB -15.62 dB 1:57 11-A Poem on the Underground Wall
DR11 -3.99 dB -18.34 dB 2:00 12-7 O'Clock News \ Silent Night
––––––––––––––––––––––––––––––––––––––––

Number of tracks: 12
Official DR value: DR11

Samplerate: 44100 Hz
Channels: 2
Bits per sample: 16
Bitrate: 737 kbps
Codec: FLAC
=====================

[CUETools log; Date: 16.03.2017 17:56:20; Version: 2.1.4]
HDCD: peak extend: none, transient filter: some, gain: none
[CTDB TOCID: zjmbwHtbT0gDGOrHuIVieukfMDU-] found.
Track | CTDB Status
1 | (27/27) Accurately ripped
2 | (27/27) Accurately ripped
3 | (27/27) Accurately ripped
4 | (27/27) Accurately ripped
5 | (27/27) Accurately ripped
6 | (27/27) Accurately ripped
7 | (27/27) Accurately ripped
8 | (27/27) Accurately ripped
9 | (27/27) Accurately ripped
10 | (27/27) Accurately ripped
11 | (27/27) Accurately ripped
12 | (26/27) Accurately ripped
[AccurateRip ID: 000d8854-007c28d8-9906af0c] found.
Track [ CRC | V2 ] Status
01 [62e1bb61|7761448e] (30+42/72) Accurately ripped
02 [82b2506e|835d0893] (30+42/72) Accurately ripped
03 [32f1933d|1d0af4f2] (30+42/72) Accurately ripped
04 [a8adfc28|4fbd9f21] (30+42/72) Accurately ripped
05 [341af93f|ce715628] (30+42/72) Accurately ripped
06 [e0caffb1|18f69d84] (30+42/72) Accurately ripped
07 [c8c8e116|e71aaa84] (30+42/72) Accurately ripped
08 [1d885340|a7b91898] (30+42/72) Accurately ripped
09 [a0d0f976|eb778936] (30+42/72) Accurately ripped
10 [ee848171|d288c361] (30+42/72) Accurately ripped
11 [9e16b4d7|f54f1a68] (30+42/72) Accurately ripped
12 [c1e71532|8d599736] (30+42/72) Accurately ripped

Track Peak [ CRC32 ] [W/O NULL] [ LOG ]
– 100,0 [2D9D3F96] [4AC75456] CRC32
01 90,1 [BCDED972] [4E83A05D]
02 100,0 [2FB3916E] [D426064A]
03 93,8 [B6CC9C95] [B33B71E7]
04 95,3 [E2933C4E] [D7E114F4]
05 93,1 [0EE3CD59] [34F9BC00]
06 84,4 [D82ABA47] [53B18452]
07 93,1 [664EE5C1] [14A8ED06]
08 75,5 [68A51770] [853ABC8B]
09 82,6 [82287224] [2B792717]
10 90,4 [071EB531] [0006C3E9]
11 91,2 [B9344070] [6DF1DEAB]
12 63,1 [44CFA194] [BCA384C9]

Simon & Garfunkel - Parsley, Sage, Rosemary, and Thyme (1966) [Audio Fidelity, AFZ 075]

All thanks go to the original releaser

Simon & Garfunkel in my Blog

Download Simon & Garfunkel - Parsley, Sage, Rosemary, and Thyme (1966):