Subcategories

Simon Rattle - Mahler: Symphony No.10, Brahms: Piano Quartet (1985)

Posted By: tirexiss
Simon Rattle - Mahler: Symphony No.10, Brahms: Piano Quartet (1985)

Simon Rattle - Mahler: Symphony No.10, Brahms: Piano Quartet (1985)
EAC | FLAC (image+.cue, log) | Covers Included | 01:58:48| 548 MB
Genre: Classical | Label: EMI Digital | Catalog: CDS 7 47301 8

It was something of a surprise to be reminded that this recording was made thirty-eight years ago. I've been re-listening to it and Rattle's later recording with the Berlin Philharmonic recently and found my memories confirmed. The Berliners are a great orchestra, make a sumptuous sound, and Rattle is on fine form. And yet, it is the intensity of the Bournemouth performance that is the more gripping for me: it is constantly on the edge, just as Mahler was as he struggled to get the outline of this intensely personal music onto paper in the last summer of his life. Deryck Cooke's Performing Version of the sketches and drafts is an astonishing achievement: we can never know how the work would have turned out, how it might have been refined had Mahler lived, but Cooke provides us with overwhelming evidence that Mahler was enriching his musical language in extraordinary ways. The 1980 recording helped to establish this Symphony in the repertoire and, listening to it today, it would be a glacial heart that failed to melt during the flute solo near the start of the last movement.

Simon Rattle - Mahler: Symphony No.10, Brahms: Piano Quartet (1985)

Track List:

CD 1:
Mahler - 10th Symphony; Brahms-Schoenberg - Piano Quartet - Simon Rattle (Disc 1)
01. Symphony No. 10 in F sharp minor (incomplete)- I. Adagio [0:24:04.02]
02. Symphony No. 10 in F sharp minor (incomplete)- II. Scherzo (sketches) [0:11:33.08]
03. Symphony No. 10 in F sharp minor (incomplete)- III. Purgatorio (sketches) [0:04:03.20]
04. Symphony No. 10 in F sharp minor (incomplete)- IV. Scherzo (sketches) [0:11:57.45]

CD 2:
01. Mahler: Symphony #10, Finale [0:24:29.25]
02. Brahms Piano Quartet #1 (orch Schoenberg) Allegro [0:14:07.52]
03. Brahms Piano Quartet #1 (orch Schoenberg) Intermezzo (Allegro, ma non troppo) [0:08:24.73]
04. Brahms Piano Quartet #1 (orch Schoenberg) Andante con moto [0:10:52.00]
05. Brahms Piano Quartet #1 (orch Schoenberg) Rondo alla zingarese (Presto) [0:09:16.40]

Performers:
Bournemouth Symphony Orchestra
City of Birmingham Symphony Orchestra
Simon Rattle - conductor

Exact Audio Copy V1.0 beta 3 from 29. August 2011

EAC extraction logfile from 16. April 2013, 20:32

Simon Rattle / Mahler - 10th Symphony; Brahms-Schoenberg - Piano Quartet - Simon Rattle (Disc 1)

Used drive : TSSTcorpCDDVDW SH-222BB Adapter: 2 ID: 1

Read mode : Secure
Utilize accurate stream : Yes
Defeat audio cache : Yes
Make use of C2 pointers : No

Read offset correction : 6
Overread into Lead-In and Lead-Out : No
Fill up missing offset samples with silence : Yes
Delete leading and trailing silent blocks : No
Null samples used in CRC calculations : Yes
Used interface : Native Win32 interface for Win NT & 2000

Used output format : User Defined Encoder
Selected bitrate : 1024 kBit/s
Quality : High
Add ID3 tag : No
Command line compressor : C:\Program Files\Exact Audio Copy\Flac\flac.exe
Additional command line options : -8 -V -T "TITLE=%title%" -T "ARTIST=%artist%" -T "ALBUMARTIST=%albumartist%" -T "ALBUM=%albumtitle%" -T "DATE=%year%" -T "TRACKNUMBER=%tracknr%" -T "TRACKTOTAL=%numtracks%" -T "GENRE=%genre%" -T "COMMENT=%comment%" -T "PERFORMER=%albuminterpret%" -T "COMPOSER=%composer%" %source% -o %dest%


TOC of the extracted CD

Track | Start | Length | Start sector | End sector
––––––––––––––––––––––––––––-
1 | 0:00.00 | 24:04.02 | 0 | 108301
2 | 24:04.02 | 11:33.08 | 108302 | 160284
3 | 35:37.10 | 4:03.20 | 160285 | 178529
4 | 39:40.30 | 11:57.45 | 178530 | 232349


Range status and errors

Selected range

Filename G:\Ripped general\[1873] Mahler - 10th Symphony; Brahms-Schoenberg – Piano Quartet – Simon Rattle\cd1\Mahler - 10th Symphony; Brahms-Schoenberg - Piano Quartet - Simon Rattle (Disc 1).wav

Peak level 100.0 %
Extraction speed 3.0 X
Range quality 100.0 %
Test CRC C81F6ED5
Copy CRC C81F6ED5
Copy OK

No errors occurred


AccurateRip summary

Track 1 cannot be verified as accurate (confidence 7) [76386337], AccurateRip returned [CFDA0AEC] (AR v2)
Track 2 cannot be verified as accurate (confidence 8) [670B133F], AccurateRip returned [4AF1D0AA] (AR v2)
Track 3 cannot be verified as accurate (confidence 8) [1216492E], AccurateRip returned [657AE962] (AR v2)
Track 4 cannot be verified as accurate (confidence 8) [06C1A2CF], AccurateRip returned [D3D5F767] (AR v2)

No tracks could be verified as accurate
You may have a different pressing from the one(s) in the database

End of status report

Exact Audio Copy V1.0 beta 3 from 29. August 2011

EAC extraction logfile from 16. April 2013, 20:51

Simon Rattle / Mahler - 10th Symphony; Brahms-Schoenberg - Piano Quartet - Simon Rattle (Disc 2)

Used drive : TSSTcorpCDDVDW SH-222BB Adapter: 2 ID: 1

Read mode : Secure
Utilize accurate stream : Yes
Defeat audio cache : Yes
Make use of C2 pointers : No

Read offset correction : 6
Overread into Lead-In and Lead-Out : No
Fill up missing offset samples with silence : Yes
Delete leading and trailing silent blocks : No
Null samples used in CRC calculations : Yes
Used interface : Native Win32 interface for Win NT & 2000

Used output format : User Defined Encoder
Selected bitrate : 1024 kBit/s
Quality : High
Add ID3 tag : No
Command line compressor : C:\Program Files\Exact Audio Copy\Flac\flac.exe
Additional command line options : -8 -V -T "TITLE=%title%" -T "ARTIST=%artist%" -T "ALBUMARTIST=%albumartist%" -T "ALBUM=%albumtitle%" -T "DATE=%year%" -T "TRACKNUMBER=%tracknr%" -T "TRACKTOTAL=%numtracks%" -T "GENRE=%genre%" -T "COMMENT=%comment%" -T "PERFORMER=%albuminterpret%" -T "COMPOSER=%composer%" %source% -o %dest%


TOC of the extracted CD

Track | Start | Length | Start sector | End sector
––––––––––––––––––––––––––––-
1 | 0:00.00 | 24:29.25 | 0 | 110199
2 | 24:29.25 | 14:07.52 | 110200 | 173776
3 | 38:37.02 | 8:24.73 | 173777 | 211649
4 | 47:02.00 | 10:52.00 | 211650 | 260549
5 | 57:54.00 | 9:16.40 | 260550 | 302289


Range status and errors

Selected range

Filename G:\Ripped general\[1873] Mahler - 10th Symphony; Brahms-Schoenberg – Piano Quartet – Simon Rattle\cd2\Mahler - 10th Symphony; Brahms-Schoenberg - Piano Quartet - Simon Rattle (Disc 2).wav

Peak level 100.0 %
Extraction speed 7.9 X
Range quality 100.0 %
Test CRC CAF7AE8C
Copy CRC CAF7AE8C
Copy OK

No errors occurred


AccurateRip summary

Track 1 cannot be verified as accurate (confidence 6) [210A7139], AccurateRip returned [1889F22B] (AR v2)
Track 2 cannot be verified as accurate (confidence 6) [B9167EAC], AccurateRip returned [2126520F] (AR v2)
Track 3 cannot be verified as accurate (confidence 6) [7271E488], AccurateRip returned [B8AD6FDD] (AR v2)
Track 4 cannot be verified as accurate (confidence 6) [B5361E8F], AccurateRip returned [9365646F] (AR v2)
Track 5 cannot be verified as accurate (confidence 6) [095C995A], AccurateRip returned [38A23AEF] (AR v2)

No tracks could be verified as accurate
You may have a different pressing from the one(s) in the database

End of status report

Thanks to the Original ripper (unknown)!

Welcome to my blog!

Download: