Subcategories

Simon and Garfunkel - Collected Works (1990) Re-up

Posted By: v3122
Simon and Garfunkel - Collected Works (1990) Re-up

Simon and Garfunkel - Collected Works (1990)
EAC Rip | Flac(Image) + Cue + Log & MP3 CBR 320Kbps
Folk-Rock | ~ 923 or 393 Mb | Covers Included
3CD | 1990 | Columbia, C3K 45322

The three-disc box set Collected Works contains all of Simon & Garfunkel's studio albums, from Wednesday Morning, 3 AM to Bridge Over Troubled Water. Though this is too much material for casual fans, any serious fan of Simon & Garfunkel or folk-rock will need to acquire the set, simply because it presents the albums in their best-ever sound. The duo did record a handful of tracks that didn't make the set – and if Columbia were assembling a true "collected works" compilation, they would have to be included – but the genuinely essential material is present, making it a good buy for the budget conscious.

by Stephen Thomas Erlewine
Simon and Garfunkel - Collected Works (1990) Re-up

The most successful folk-rock duo of the 1960s, Paul Simon and Art Garfunkel crafted a series of memorable hit albums and singles featuring their choirboy harmonies, ringing acoustic and electric guitars, and Simon's acute, finely wrought songwriting. The pair always inhabited the more polished end of the folk-rock spectrum and was sometimes criticized for a certain collegiate sterility. Many also feel that Simon, as both a singer and songwriter, didn't truly blossom until he began his own hugely successful solo career in the 1970s. But the best of S&G's work can stand among Simon's best material, and the duo did progress musically over the course of their five albums, moving from basic folk-rock productions into Latin rhythms and gospel-influenced arrangements that foreshadowed Simon's eclecticism on his solo albums.

Simon & Garfunkel's recording history actually predated their first mid-'60s hit by almost a decade. Childhood friends while growing up together in Forest Hills, NY, they began making records in 1957, performing (and often writing their own material) in something of a juvenile Everly Brothers style. Calling themselves Tom & Jerry, their first single, "Hey Schoolgirl," actually made the Top 50, but a series of follow-ups went nowhere. The duo split up, and Simon continued to struggle to make it in the music business as a songwriter and occasional performer, sometimes using the names of Jerry Landis or Tico & the Triumphs.

By the early '60s, both Simon and Garfunkel were coming under the influence of folk music. When they reteamed, it was as a folk duo, though Simon's pop roots would serve the act well in their material's synthesis of folk and pop influences. Signing to Columbia, they recorded an initially unsuccessful acoustic debut (as Simon & Garfunkel, not Tom & Jerry) in 1964, Wednesday Morning, 3 AM They again went their separate ways, Simon moving to England, where he played the folk circuit and recorded an obscure solo album.

The Simon & Garfunkel story might have ended there, except for a brainstorm of their producer, Tom Wilson (who also produced several of Bob Dylan's early albums). Folk-rock was taking off in 1965, and Wilson, who had helped Dylan electrify his sound, took the strongest track from S&G's debut, "The Sound of Silence," and embellished it with electric guitars, bass, and drums. It got to number one in early 1966, giving the duo the impetus to reunite and make a serious go at a recording career, Simon returning from the U.K. to the U.S. In 1966 and 1967, they were regular visitors to the pop charts with some of the best folk-rock of the era, including "Homeward Bound," "I Am a Rock," and "A Hazy Shade of Winter."

Simon & Garfunkel's early albums were erratic, but they steadily improved as Simon sharpened his songwriting, and as the duo became more comfortable and adventurous in the studio. Their execution was so clean and tasteful that it cost them some hipness points during the psychedelic era, which was a bit silly. They were far from the raunchiest thing going, but managed to pull off the nifty feat of appealing to varying segments of the pop and rock audience – and various age groups, not just limited to adolescents – without compromising their music. Parsley, Sage, Rosemary and Thyme (late 1966) was their first really consistent album; Bookends (1968), which actually blended previously released singles with some new material, reflected their growing maturity. One of its songs, "Mrs. Robinson," became one of the biggest singles of the late '60s after it was prominently featured in one of the best films of the period, The Graduate (which also had other Simon & Garfunkel songs on the soundtrack).

It was unsurprising, in retrospect, that the duo's partnership began to weaken in the late '60s. They had known each other most of their lives, and been performing together for over a decade. Simon began to feel constrained by the limits of working with the same collaborator; Garfunkel, who wrote virtually none of the material, felt overshadowed by the songwriting talents of Simon, though Garfunkel's high tenor was crucial to their appeal. They started to record some of their contributions separately in the studio, and barely played live at all in 1969, as Garfunkel began to pursue an acting career.

Their final studio album, Bridge Over Troubled Water, was an enormous hit, topping the charts for ten weeks, and containing four hit singles (the title track, "The Boxer," "Cecilia," and "El Condor Pasa"). It was certainly their most musically ambitious, with "Bridge Over Troubled Water" and "The Boxer" employing thundering drums and tasteful orchestration, and "Cecilia" marking one of Simon's first forays into South American rhythms. It also caught the confused, reflective tenor of the times better than almost any other popular release of 1970.

That would be their last album of new material. Although they didn't necessarily intend to break up at the time, the break from recording eventually became permanent; as Simon began a solo career that brought him as much success as the S&G outings, and Garfunkel pursued simultaneous acting and recording careers. They did reunite in 1975 for a Top Ten single, "My Little Town," and periodically performed together since without ever coming close to generating albums of new material. A 1981 concert in New York's Central Park attracted half a million fans, and was commemorated with a live album; they also toured in the early '80s, but a planned studio album was canceled due to artistic differences.

by Richie Unterberger

Simon and Garfunkel - Collected Works (1990) Re-up

Наиболее успешный фолк-роковый дуэт рока 60-х годов, Пол Саймон и Арт Гарфанкел произвел на свет незабываемых альбомов и синглов, представлявших соразмерность звучания акустической и электрогитары, а также композиторский талант Саймона. Правда, по мнению многих критиков его способности проявились гораздо более полно когда он занялся сольной карьерой в 70-х годах. Однако все же лучшие работы Саймона принадлежат времени работы с Гарфанкелом. От альбома к альбому дуэт прогрессировал, сместив акцент от фолк-рока в сторону госпел и латинских ритмов. Друзья детства, Пол и Арт выросли вместе в Нью-Йорке и начали записываться еще в 1957 году. Первые работы хотя и принадлежали перу дуэта, но все-таки напоминали творчество "Everly brothers". Под вывеской "Tom and Jerry" музыканты выпустили свой первый сингл, "Hey schoolgirl", попавший в американский Топ 50. Однако последующие релизы не имели такого успеха.

Дуэт распался, и Саймон продолжил работать как автор песен. В начале 60-х на волне расцвета фолка Саймон и Гарфанкел воссоединились. Дуэт заключил контракт с "Columbia records" и в 1964 году под вывеской "Simon and Garfunkel" выпустил дебютный акустический альбом, "Wednesday Morning, 3 A.M.". Пластинка оказалась не очень удачной и музыканты вновь разбежались.

Саймон свалил в Англию и там записал сольный альбом, также особого успеха не имевший. На этом история "Simon & Garfunkel" могла бы закончиться, если бы не их продюсер Том Вилсон (работавший также над ранними альбомами Боба Дилана). Он взял самый лучший трек с их дебютника, "Sound of silence", и украсил его электрогитарами, басухой и барабанами. В начале 1966-го песня заняла верхние строчки хит-парадов, и это дало дуэту стимул для воссоединения, для чего Саймон вернулся обратно в Штаты. В 1966 и 1967 годах "Simon & Garfunkel" регулярно попадали в чарты с такими хитами как "Homeward bound", "I am a rock" и "A hazy shade of winter". Ранние альбомы дуэта были сыроваты, но качество работ неуклонно улучшалось, т. к. Саймон постоянно оттачивал свое композиторское мастерство. Диск "Parsley, Sage, Rosemary and Thyme", вышедший в конце 1966-го стал их первой по настоящему хорошей работой.

А пластинка 1968 года "Bookends", содержавшая материал с уже изданных синглов и несколько новых треков, полностью отразила зрелость дуэта. Одна из песен, "Mrs. Robinson", стала одним из самых великих хитов конца 60-х. Эта вещь, наряду с другими композициями "Simon and Garfunkel" прозвучала в саундтреке к популярному в то время фильму "The Graduate".

На исходе 60-х у музыкантов начались проблемы. Во-первых они уже порядком надоели друг другу, во-вторых Саймону уже было тесно в рамках дуэта. Арту тоже надоело оставаться в тени своего коллеги, поскольку он не написал практически ни одной вещи, хотя его высокий тенор имел большое значение в дуэте. Из-за всего этого они стали свои студийные партии записывать по отдельности, с 1969 года прекратив концертную деятельность. Последний студийный альбом Саймона и Гарфанкела, "Bridge Over Troubled Waters", имел огромнейший успех, на 10 недель возглавив американские хит-парады. Заглавная композиция, а также три других ("The Boxer," "Cecilia" и "El Condor Pasa"), изданные синглами, также занимали верхние строчки чартов. Вроде к распаду дело не шло, просто музыканты взяли перерыв в студийной работе. Но перерыв этот слишком затянулся, и Пол Саймон начал сольную карьеру, принесшую ему не меньший успех, чем работа в дуэте.

В 1975-м Пол и Арт собирались вместе для записи сингла "My little town", с тех пор лишь изредка выступая вдвоем. В 1981-м они дали концерт в центральном нью-йоркском парке, привлекший чрезвычайно много народу. На основе это выступления был выпущен "лайв". Впоследствии было совместное турне, но студийных работ дуэт больше не выпускал.

~ muzdb
Simon and Garfunkel - Collected Works (1990):

Simon and Garfunkel - Collected Works (1990) Re-up

Tracklist CD1:

1. You Can Tell The World (2:45)
2. Last Night I Had The Strangest Dream (2:11)
3. Bleecker Street (2:46)
4. SSparrow (2:50)
5. Benedictus (2:41)
6. The Sounds Of Silence (3:06)
7. He Was My Brother (2:49)
8. Peggy-O (2:26)
9. Go Tell It On The Mountain (2:06)
10. The Sun Is Burning (2:49)
11. SThe Times They Are A Changin (2:53)
12. Wednesday Morning, 3 A.M. (2:17)
13. The Sound Of Silence (3:08)
14. Leaves That Are Green (2:23)
15. Blessed (3:16)
16. Kathy's Song (3:21)
17. Somewhere They Can't Find Me (2:37)
18. Anji (2:17)
19. Richard Cory (2:57)
20. A Most Peculiar Man (2:33)
21. April Come She Will (1:51)
22. We've Got A Groovey Thing Goin' (2:00)
23. I Am A Rock (2:50)

Exact Audio Copy V0.99 prebeta 5 from 4. May 2009

Отчёт EAC об извлечении, выполненном 7. января 2010, 21:23

Simon and Garfunkel / Collected Works CD 1

Дисковод: Optiarc DVD RW AD-7200S Adapter: 2 ID: 0

Режим чтения : Достоверность
Использование точного потока : Да
Отключение кэша аудио : Да
Использование указателей C2 : Нет

Коррекция смещения при чтении : 48
Способность читать области Lead-in и Lead-out : Нет
Заполнение пропущенных сэмплов тишиной : Да
Удаление блоков с тишиной в начале и конце : Нет
При вычислениях CRC использовались нулевые сэмплы : Да
Интерфейс : Встроенный Win32-интерфейс для Win NT/2000

Выходной формат : Внутренние WAV-операции
Формат сэмплов : 44.100 Гц; 16 бит; стерео


TOC извлечённого CD

Трек | Старт | Длительность | Начальный сектор | Конечный сектор
––––––––––––––––––––––––––––––––––-
1 | 0:00.00 | 2:45.22 | 0 | 12396
2 | 2:45.22 | 2:11.18 | 12397 | 22239
3 | 4:56.40 | 2:46.20 | 22240 | 34709
4 | 7:42.60 | 2:50.02 | 34710 | 47461
5 | 10:32.62 | 2:41.33 | 47462 | 59569
6 | 13:14.20 | 3:06.62 | 59570 | 73581
7 | 16:21.07 | 2:49.33 | 73582 | 86289
8 | 19:10.40 | 2:26.00 | 86290 | 97239
9 | 21:36.40 | 2:06.15 | 97240 | 106704
10 | 23:42.55 | 2:49.27 | 106705 | 119406
11 | 26:32.07 | 2:53.35 | 119407 | 132416
12 | 29:25.42 | 2:17.40 | 132417 | 142731
13 | 31:43.07 | 3:08.00 | 142732 | 156831
14 | 34:51.07 | 2:23.38 | 156832 | 167594
15 | 37:14.45 | 3:16.10 | 167595 | 182304
16 | 40:30.55 | 3:21.00 | 182305 | 197379
17 | 43:51.55 | 2:37.47 | 197380 | 209201
18 | 46:29.27 | 2:17.05 | 209202 | 219481
19 | 48:46.32 | 2:57.73 | 219482 | 232829
20 | 51:44.30 | 2:33.72 | 232830 | 244376
21 | 54:18.27 | 1:51.58 | 244377 | 252759
22 | 56:10.10 | 2:00.27 | 252760 | 261786
23 | 58:10.37 | 2:50.35 | 261787 | 274571


Характеристики диапазона извлечения и сообщения об ошибках

Выбранный диапазон

Имя файла E:\МОИ РАЗДАЧИ\Simon and Garfunkel - Collected Works 3CD\Simon and Garfunkel - Collected Works CD 1.wav

Пиковый уровень 80.1 %
Качество диапазона 100.0 %
CRC копии 5F4DB9C9
Копирование… OK

Ошибок не произошло


AccurateRip: сводка

Трек 1 точное извлечение (доверие 4) [B9DA8FB0]
Трек 2 точное извлечение (доверие 4) [99746650]
Трек 3 точное извлечение (доверие 4) [606CCE4F]
Трек 4 точное извлечение (доверие 4) [D8E25B7F]
Трек 5 точное извлечение (доверие 4) [7A54C690]
Трек 6 точное извлечение (доверие 4) [2CE1879E]
Трек 7 точное извлечение (доверие 4) [4D15EDF9]
Трек 8 точное извлечение (доверие 4) [3852A89B]
Трек 9 точное извлечение (доверие 4) [C28B8D73]
Трек 10 точное извлечение (доверие 4) [DF2C26C4]
Трек 11 точное извлечение (доверие 4) [9482AA52]
Трек 12 точное извлечение (доверие 4) [E3544F2C]
Трек 13 точное извлечение (доверие 4) [81315B38]
Трек 14 точное извлечение (доверие 4) [6D95F218]
Трек 15 точное извлечение (доверие 4) [67B1F9BC]
Трек 16 точное извлечение (доверие 4) [0BD39739]
Трек 17 точное извлечение (доверие 4) [5F016CB6]
Трек 18 точное извлечение (доверие 4) [E565656A]
Трек 19 точное извлечение (доверие 4) [A23C1162]
Трек 20 точное извлечение (доверие 4) [FA1203D2]
Трек 21 точное извлечение (доверие 4) [3531D90F]
Трек 22 точное извлечение (доверие 4) [17354BFE]
Трек 23 точное извлечение (доверие 3) [403C1F1A]

Все треки извлечены точно

Конец отчёта

AUDIOCHECKER v2.0 beta (build 457) - by Dester - opdester@freemail.hu
~~~~~~~~~~~~~~~~~~~~~~~~~~~~~~~~~~
-=== DO NOT EDIT THIS FILE! ===-

Path: …\1990 - Collected Works - CD1 - flac

1 -=- Simon and Garfunkel - Collected Works CD 1.flac -=- CDDA (100%)

209614436

foobar2000 1.1.18 / Dynamic Range Meter 1.1.1
log date: 2013-01-29 02:23:33

––––––––––––––––––––––––––––––––––––––––
Analyzed: Simon and Garfunkel / Collected Works CD 1
––––––––––––––––––––––––––––––––––––––––

DR Peak RMS Duration Track
––––––––––––––––––––––––––––––––––––––––
DR12 -4.36 dB -19.63 dB 2:45 01-Wednesday Morning, 3 A.M. - You Can Tell The World
DR12 -5.79 dB -19.81 dB 2:11 02-Wednesday Morning, 3 A.M. - Last Night I Had The Strangest Dream
DR11 -5.07 dB -19.60 dB 2:46 03-Wednesday Morning, 3 A.M. - Bleeker Street
DR12 -6.99 dB -23.27 dB 2:50 04-Wednesday Morning, 3 A.M. - Sparrow
DR10 -9.21 dB -24.21 dB 2:41 05-Wednesday Morning, 3 A.M. - Benedictus
DR13 -4.79 dB -21.90 dB 3:07 06-Wednesday Morning, 3 A.M. - The Sound Of Silence
DR11 -7.24 dB -20.33 dB 2:49 07-Wednesday Morning, 3 A.M. - He Was My Brother
DR11 -6.77 dB -21.74 dB 2:26 08-Wednesday Morning, 3 A.M. - Peggy-O
DR11 -6.20 dB -20.14 dB 2:06 09-Wednesday Morning, 3 A.M. - Go Tell It On The Mountain
DR12 -4.57 dB -20.25 dB 2:49 10-Wednesday Morning, 3 A.M. - The Sun Is Burning
DR12 -3.73 dB -19.61 dB 2:53 11-Wednesday Morning, 3 A.M. - The Times They Are A-Changin'
DR12 -7.77 dB -21.44 dB 2:18 12-Wednesday Morning, 3 A.M. - Wednesday Morning, 3 A.M.
DR12 -4.74 dB -19.80 dB 3:08 13-The Sound Of Silence - The Sound Of Silence
DR10 -7.37 dB -20.37 dB 2:24 14-The Sound Of Silence - Leaves That Are Green
DR12 -3.95 dB -19.45 dB 3:16 15-The Sound Of Silence - Blessed
DR13 -6.50 dB -22.30 dB 3:21 16-The Sound Of Silence - Kathy's Song
DR11 -5.39 dB -18.72 dB 2:38 17-The Sound Of Silence - Somewhere They Can't Find Me
DR12 -5.94 dB -21.55 dB 2:17 18-The Sound Of Silence - Anji
DR13 -3.23 dB -18.44 dB 2:58 19-The Sound Of Silence - Richard Cory
DR12 -4.70 dB -20.48 dB 2:34 20-The Sound Of Silence - A Most Peculiar Man
DR11 -6.60 dB -21.99 dB 1:52 21-The Sound Of Silence - April Come She Will
DR12 -1.92 dB -17.89 dB 2:00 22-The Sound Of Silence - We've Got A Groovey Thing Goin'
DR11 -4.38 dB -18.56 dB 2:50 23-The Sound Of Silence - I Am A Rock
––––––––––––––––––––––––––––––––––––––––

Number of tracks: 23
Official DR value: DR12

Samplerate: 44100 Hz
Channels: 2
Bits per sample: 16
Bitrate: 754 kbps
Codec: FLAC

Simon and Garfunkel - Collected Works (1990) Re-up

Tracklist CD2:

1. Scarborough Fair/Canticle (3:10)
2. Patterns (2:45)
3. Cloudy (2:15)
4. Homeward Bound (2:30)
5. The Big Bright Green Pleasure Machine (2:44)
6. The 59th Street Bridge Song (Feelin' Groovy) (1:42)
7. The Dangling Conversation (2:40)
8. Flowers Never Bend With The Rainfall (2:14)
9. A Simple Desultory Philippic (Or How I Was Robert McNamara'd Into Submission) (2:12)
10. For Emily, Whenever I May Find Her (2:04)
11. A Poem On The Underground Wall (1:56)
12. 7 O'Clock News/Silent Night (2:00)
13. Bookends Theme (0:32)
14. Save The Life Of My Child (2:48)
15. America (3:41)
16. Overs (2:13)
17. Voices Of Old People (2:07)
18. Old Friends (2:35)
19. Bookends Theme (1:23)
20. Fakin' It (3:19)
21. Punky's Dilemma (2:17)
22. Mrs. Robinson (4:05)
23. A Hazy Shade Of Winter (2:17)
24. At The Zoo (2:22)

Exact Audio Copy V0.99 prebeta 5 from 4. May 2009

Отчёт EAC об извлечении, выполненном 7. января 2010, 21:41

Simon & Garfunkel / Collected Works (CD 2)

Дисковод: Optiarc DVD RW AD-7200S Adapter: 2 ID: 0

Режим чтения : Достоверность
Использование точного потока : Да
Отключение кэша аудио : Да
Использование указателей C2 : Нет

Коррекция смещения при чтении : 48
Способность читать области Lead-in и Lead-out : Нет
Заполнение пропущенных сэмплов тишиной : Да
Удаление блоков с тишиной в начале и конце : Нет
При вычислениях CRC использовались нулевые сэмплы : Да
Интерфейс : Встроенный Win32-интерфейс для Win NT/2000

Выходной формат : Внутренние WAV-операции
Формат сэмплов : 44.100 Гц; 16 бит; стерео


TOC извлечённого CD

Трек | Старт | Длительность | Начальный сектор | Конечный сектор
––––––––––––––––––––––––––––––––––-
1 | 0:00.00 | 3:10.42 | 0 | 14291
2 | 3:10.42 | 2:45.05 | 14292 | 26671
3 | 5:55.47 | 2:15.13 | 26672 | 36809
4 | 8:10.60 | 2:30.20 | 36810 | 48079
5 | 10:41.05 | 2:44.40 | 48080 | 60419
6 | 13:25.45 | 1:42.57 | 60420 | 68126
7 | 15:08.27 | 2:40.63 | 68127 | 80189
8 | 17:49.15 | 2:14.07 | 80190 | 90246
9 | 20:03.22 | 2:12.65 | 90247 | 100211
10 | 22:16.12 | 2:04.45 | 100212 | 109556
11 | 24:20.57 | 1:56.65 | 109557 | 118321
12 | 26:17.47 | 2:00.00 | 118322 | 127321
13 | 28:17.47 | 0:32.23 | 127322 | 129744
14 | 28:49.70 | 2:48.37 | 129745 | 142381
15 | 31:38.32 | 3:41.15 | 142382 | 158971
16 | 35:19.47 | 2:13.23 | 158972 | 168969
17 | 37:32.70 | 2:07.10 | 168970 | 178504
18 | 39:40.05 | 2:35.15 | 178505 | 190144
19 | 42:15.20 | 1:23.60 | 190145 | 196429
20 | 43:39.05 | 3:19.17 | 196430 | 211371
21 | 46:58.22 | 2:17.23 | 211372 | 221669
22 | 49:15.45 | 4:05.57 | 221670 | 240101
23 | 53:21.27 | 2:17.10 | 240102 | 250386
24 | 55:38.37 | 2:22.28 | 250387 | 261064


Характеристики диапазона извлечения и сообщения об ошибках

Выбранный диапазон

Имя файла E:\МОИ РАЗДАЧИ\Simon and Garfunkel - Collected Works 3CD\Simon & Garfunkel - Collected Works (CD 2).wav

Пиковый уровень 98.3 %
Качество диапазона 100.0 %
CRC копии CCE13371
Копирование… OK

Ошибок не произошло


AccurateRip: сводка

Трек 1 точность не определена (достоверность 6) [A7838B49], AccurateRip вернул [1B4BF9EB]
Трек 2 точность не определена (достоверность 6) [7C822E5C], AccurateRip вернул [8C7D816E]
Трек 3 точность не определена (достоверность 6) [83B02135], AccurateRip вернул [B494D9B9]
Трек 4 точность не определена (достоверность 6) [2A194D41], AccurateRip вернул [EB43C09B]
Трек 5 точность не определена (достоверность 6) [28B3C3FC], AccurateRip вернул [457354A0]
Трек 6 точность не определена (достоверность 6) [4341816B], AccurateRip вернул [75C57D4B]
Трек 7 точность не определена (достоверность 6) [4096ADAA], AccurateRip вернул [9C7BDAE4]
Трек 8 точность не определена (достоверность 6) [47B481F6], AccurateRip вернул [1194B93D]
Трек 9 точность не определена (достоверность 6) [09C2B3F7], AccurateRip вернул [0007908A]
Трек 10 точность не определена (достоверность 6) [527495BD], AccurateRip вернул [0033445B]
Трек 11 точность не определена (достоверность 6) [FDFF40B1], AccurateRip вернул [2090256C]
Трек 12 точность не определена (достоверность 6) [197C74FD], AccurateRip вернул [69416474]
Трек 13 точность не определена (достоверность 6) [FCA58C58], AccurateRip вернул [C3EC09C5]
Трек 14 точность не определена (достоверность 6) [1C714E67], AccurateRip вернул [E52C590A]
Трек 15 точность не определена (достоверность 6) [13212F75], AccurateRip вернул [52993A38]
Трек 16 точность не определена (достоверность 6) [1C332F79], AccurateRip вернул [35BAC3DA]
Трек 17 точность не определена (достоверность 6) [ED15C255], AccurateRip вернул [C08A66AD]
Трек 18 точность не определена (достоверность 6) [5D527860], AccurateRip вернул [5A806E3A]
Трек 19 точность не определена (достоверность 6) [6EB28998], AccurateRip вернул [BBF53C8E]
Трек 20 точность не определена (достоверность 6) [B8EEB099], AccurateRip вернул [6DA579E7]
Трек 21 точность не определена (достоверность 6) [934D3E66], AccurateRip вернул [43DEFFAE]
Трек 22 точность не определена (достоверность 6) [FD3C9A42], AccurateRip вернул [507EC040]
Трек 23 точность не определена (достоверность 6) [28B8496E], AccurateRip вернул [367DABB2]
Трек 24 точность не определена (достоверность 5) [CE1D5616], AccurateRip вернул [EDA28FBE]

Ни один трек не прошёл проверки на точность
В вашей базе может быть иной вариант штамповки диска

Конец отчёта

AUDIOCHECKER v2.0 beta (build 457) - by Dester - opdester@freemail.hu
~~~~~~~~~~~~~~~~~~~~~~~~~~~~~~~~~~
-=== DO NOT EDIT THIS FILE! ===-

Path: …\1990 - Collected Works - CD2 - flac

1 -=- Simon & Garfunkel - Collected Works (CD 2).flac -=- CDDA (100%)

47801588

foobar2000 1.1.18 / Dynamic Range Meter 1.1.1
log date: 2013-01-29 02:23:58

––––––––––––––––––––––––––––––––––––––––
Analyzed: Simon & Garfunkel / Collected Works (CD 2)
––––––––––––––––––––––––––––––––––––––––

DR Peak RMS Duration Track
––––––––––––––––––––––––––––––––––––––––
DR11 -6.32 dB -20.65 dB 3:11 01-Parsley, Sage, Rosemary and Thyme - Scarborough Fair - Canticle
DR14 -1.98 dB -20.93 dB 2:45 02-Parsley, Sage, Rosemary and Thyme - Patterns
DR11 -5.94 dB -21.21 dB 2:15 03-Parsley, Sage, Rosemary and Thyme - Cloudy
DR12 -2.73 dB -18.92 dB 2:30 04-Parsley, Sage, Rosemary and Thyme - Homeward Bound
DR12 -4.55 dB -18.92 dB 2:45 05-Parsley, Sage, Rosemary and Thyme - The Big Bright Green Pleasure Machine
DR11 -7.34 dB -21.26 dB 1:43 06-Parsley, Sage, Rosemary and Thyme - The 59th Street Bridge Song (Feelin' Groovy)
DR11 -5.42 dB -21.29 dB 2:41 07-Parsley, Sage, Rosemary and Thyme - The Dangling Conversation
DR11 -6.82 dB -20.34 dB 2:14 08-Parsley, Sage, Rosemary and Thyme - Flowers Never Bend With The Rainfall
DR12 -3.71 dB -19.16 dB 2:13 09-Parsley, Sage, Rosemary and Thyme - A Simple Desultory Philippic (Or How I Wa…
DR10 -6.83 dB -22.41 dB 2:05 10-Parsley, Sage, Rosemary and Thyme - For Emily, Whenever I May Find Her
DR11 -4.74 dB -19.64 dB 1:57 11-Parsley, Sage, Rosemary and Thyme - A Poem On The Underground Wall
DR11 -10.85 dB -25.66 dB 2:00 12-Parsley, Sage, Rosemary and Thyme - 7 O'Clock News - Silent Night
DR14 -12.17 dB -28.57 dB 0:32 13-Bookends - Bookends Theme
DR13 -2.50 dB -18.93 dB 2:48 14-Bookends - Save The Life Of My Child
DR12 -2.10 dB -20.34 dB 3:41 15-Bookends - America
DR14 -4.61 dB -24.19 dB 2:13 16-Bookends - Overs
DR18 -8.72 dB -35.56 dB 2:07 17-Bookends - Voices Of Old People
DR11 -5.23 dB -21.21 dB 2:35 18-Bookends - Old Friends
DR13 -8.95 dB -26.59 dB 1:24 19-Bookends - Bookends Theme
DR13 -1.90 dB -20.00 dB 3:19 20-Bookends - Fakin' It
DR13 -3.43 dB -20.57 dB 2:17 21-Bookends - Punky's Dilemma
DR13 -0.14 dB -18.43 dB 4:06 22-Bookends - Mrs. Robinson
DR13 -2.19 dB -18.54 dB 2:17 23-Bookends - A Hazy Shade Of Winter
DR12 -3.23 dB -18.94 dB 2:22 24-Bookends - At The Zoo
––––––––––––––––––––––––––––––––––––––––

Number of tracks: 24
Official DR value: DR12

Samplerate: 44100 Hz
Channels: 2
Bits per sample: 16
Bitrate: 786 kbps
Codec: FLAC

Simon and Garfunkel - Collected Works (1990) Re-up

Tracklist CD3:

1. Bridge Over Troubled Water (4:55)
2. El Condor Pasa (If I Could) (3:09)
3. Cecilia (2:55)
4. Keep The Customer Satisfied (2:37)
5. So Long, Frank Lloyd Wright (3:45)
6. The Boxer (5:12)
7. Baby Driver (3:18)
8. The Only Living Boy In New York (4:02)
9. Why Don't You Write Me (2:45)
10. Bye Bye Love (2:55)
11. Song For The Asking (1:49)

Exact Audio Copy V0.99 prebeta 5 from 4. May 2009

Отчёт EAC об извлечении, выполненном 7. января 2010, 22:00

Simon & Garfunkel / Bridge Over Troubled Water

Дисковод: Optiarc DVD RW AD-7200S Adapter: 2 ID: 0

Режим чтения : Достоверность
Использование точного потока : Да
Отключение кэша аудио : Да
Использование указателей C2 : Нет

Коррекция смещения при чтении : 48
Способность читать области Lead-in и Lead-out : Нет
Заполнение пропущенных сэмплов тишиной : Да
Удаление блоков с тишиной в начале и конце : Нет
При вычислениях CRC использовались нулевые сэмплы : Да
Интерфейс : Встроенный Win32-интерфейс для Win NT/2000

Выходной формат : Внутренние WAV-операции
Формат сэмплов : 44.100 Гц; 16 бит; стерео


TOC извлечённого CD

Трек | Старт | Длительность | Начальный сектор | Конечный сектор
––––––––––––––––––––––––––––––––––-
1 | 0:00.00 | 4:55.10 | 0 | 22134
2 | 4:55.10 | 3:09.17 | 22135 | 36326
3 | 8:04.27 | 2:55.10 | 36327 | 49461
4 | 10:59.37 | 2:37.70 | 49462 | 61306
5 | 13:37.32 | 3:45.33 | 61307 | 78214
6 | 17:22.65 | 5:12.72 | 78215 | 101686
7 | 22:35.62 | 3:18.13 | 101687 | 116549
8 | 25:54.00 | 4:02.00 | 116550 | 134699
9 | 29:56.00 | 2:45.37 | 134700 | 147111
10 | 32:41.37 | 2:55.50 | 147112 | 160286
11 | 35:37.12 | 1:49.08 | 160287 | 168469


Характеристики диапазона извлечения и сообщения об ошибках

Выбранный диапазон

Имя файла E:\МОИ РАЗДАЧИ\Simon and Garfunkel - Collected Works 3CD\Simon & Garfunkel - Bridge Over Troubled Water.wav

Пиковый уровень 85.4 %
Качество диапазона 100.0 %
CRC копии 499D5CC5
Копирование… OK

Ошибок не произошло


AccurateRip: сводка

Трек 1 точное извлечение (доверие 48) [35E8285D]
Трек 2 точное извлечение (доверие 46) [7B8B49D3]
Трек 3 точное извлечение (доверие 46) [011C409D]
Трек 4 точное извлечение (доверие 46) [6F69DFE3]
Трек 5 точное извлечение (доверие 46) [B51D2F99]
Трек 6 точное извлечение (доверие 46) [8081826B]
Трек 7 точное извлечение (доверие 46) [4B3F3638]
Трек 8 точное извлечение (доверие 46) [E30D1E61]
Трек 9 точное извлечение (доверие 46) [0FAC95CA]
Трек 10 точное извлечение (доверие 46) [87F30ED7]
Трек 11 точное извлечение (доверие 46) [0A41FF05]

Все треки извлечены точно

Конец отчёта

AUDIOCHECKER v2.0 beta (build 457) - by Dester - opdester@freemail.hu
~~~~~~~~~~~~~~~~~~~~~~~~~~~~~~~~~~
-=== DO NOT EDIT THIS FILE! ===-

Path: …\1990 - Collected Works - CD3 - flac

1 -=- Simon & Garfunkel - Bridge Over Troubled Water.flac -=- CDDA (100%)

232498036

foobar2000 1.1.18 / Dynamic Range Meter 1.1.1
log date: 2013-01-29 02:24:19

––––––––––––––––––––––––––––––––––––––––
Analyzed: Simon & Garfunkel / Bridge Over Troubled Water
––––––––––––––––––––––––––––––––––––––––

DR Peak RMS Duration Track
––––––––––––––––––––––––––––––––––––––––
DR12 -3.41 dB -20.67 dB 4:55 01-Bridge Over Troubled Water
DR12 -5.98 dB -21.96 dB 3:09 02-El Condor Pasa
DR14 -1.37 dB -18.34 dB 2:55 03-Cecilia
DR11 -3.12 dB -17.34 dB 2:38 04-Keep The Customer Satisfied
DR13 -6.66 dB -22.12 dB 3:45 05-So Long, Frank Lloyd Wright
DR12 -1.60 dB -20.31 dB 5:13 06-The Boxer
DR13 -2.48 dB -18.07 dB 3:18 07-Baby Driver
DR12 -2.11 dB -18.51 dB 4:02 08-The Only Living Boy In New York
DR12 -2.71 dB -17.59 dB 2:45 09-Why Don't You Write Me
DR12 -4.61 dB -18.66 dB 2:56 10-Bye Bye Love
DR10 -6.67 dB -21.86 dB 1:49 11-Song For The Asking
––––––––––––––––––––––––––––––––––––––––

Number of tracks: 11
Official DR value: DR12

Samplerate: 44100 Hz
Channels: 2
Bits per sample: 16
Bitrate: 818 kbps
Codec: FLAC

Simon and Garfunkel - Collected Works (1990) Re-up

All thanks go to виктор юрьевич

Download Simon and Garfunkel - Collected Works (1990):