Subcategories

Simon Standage, Collegium Musicum 90 - Albinoni: 12 Concerti a cinque Op. 5 (2000)

Posted By: ArlegZ
Simon Standage, Collegium Musicum 90 - Albinoni: 12 Concerti a cinque Op. 5 (2000)

Simon Standage, Collegium Musicum 90 - Albinoni: 12 Concerti a cinque Op. 5 (2000)
EAC | FLAC | Image (Cue & Log) ~ 400 Mb | Total time: 76:18 | Scans included
Classical | Label: Chandos | # CHAN0663 | Recorded: 2000

Albinoni might be described as a specialist in the medium of the Concerto a cinque, of which he composed 54, published at intervals during almost half his productive life. The first six appeared in his Op 2 (1700), together with six sonatas from which they inherited some structural features, and were followed in 1707 by the 12 of Op 5. They were 'halfway houses' on the road to the violin concerto per se as we know it – and as Vivaldi established it four years later.Virtuoso passages for a solo violin appear only en passant in flanking movements and 'symmetrically' in the Adagios of Nos 3, 6, 9 and 12. Each Concerto is in three-movement form and all the finales are fugal, as they are in the Op 2, though in their simplicity they sound rather like rondos. There was little by way of innovation in Albinoni's concertos, which leant on past examples and stressed some of their most durable features, but the lyricism of the Adagios of Nos 2, 5, 8 and 11 (again symmetrically placed) was indeed new. Their strength is in his gift of melodic invention, their clearly defined form and thematic material, their conciseness – a virtue that didn't survive in some of his later concertos – and their vitality and freshness. The recording and annotation are of the highest standard, and of the performances it might be said that if they're ever bettered in any respect, we and Albinoni will indeed be fortunate.
–The Gramophone

Performer:
Collegium Musicum 90
Simon Standage

Track List:
01-03. Concerto a 5 in B flat major, Op. 5, No. 1
04-06. Concerto for five instruments in F major, Op. 5 No. 2
07-09. Concerto for five instruments in D major, Op. 5 No. 3
10-12. Concerto for five instruments in G major, Op. 5 No. 4
13-15. Concerto grosso, Op. 5 No. 5 in A Minor
16-18. Concerto for five instruments in C major, Op. 5 No. 6
19-21. Concerto for five instruments No. 7 in D major, Op. 5 No. 7
22-24. Concerto for five instruments No. 8 in F major, Op. 5 No. 8
25-27. Concerto for five instruments No. 9 in E major, Op. 5 No. 9
28-30. Concerto for five instruments No. 10 in A major, Op. 5 No. 10
31-33. Concerto for five instruments No. 11 in G major, Op. 5 No. 11
34-36. Concerto for five instruments No. 12 in C major, Op. 5 No. 12


Exact Audio Copy V1.3 from 2. September 2016

EAC extraction logfile from 6. April 2018, 20:53

Simon Standage, Collegium Musicum 90 / Albinoni - 12 Concerti a cinque Op. 5

Used drive : HL-DT-STDVDRAM GH24NS95 Adapter: 1 ID: 0

Read mode : Secure
Utilize accurate stream : Yes
Defeat audio cache : Yes
Make use of C2 pointers : No

Read offset correction : 6
Overread into Lead-In and Lead-Out : No
Fill up missing offset samples with silence : Yes
Delete leading and trailing silent blocks : No
Null samples used in CRC calculations : Yes
Used interface : Native Win32 interface for Win NT & 2000

Used output format : User Defined Encoder
Selected bitrate : 128 kBit/s
Quality : High
Add ID3 tag : No
Command line compressor : C:\Program Files\Exact Audio Copy\Flac\flac.exe
Additional command line options : -V -8 -T "Date=%year%" -T "Genre=%genre%" %source%


TOC of the extracted CD

Track | Start | Length | Start sector | End sector
––––––––––––––––––––––––––––-
1 | 0:00.00 | 2:02.50 | 0 | 9199
2 | 2:02.50 | 0:59.00 | 9200 | 13624
3 | 3:01.50 | 1:46.25 | 13625 | 21599
4 | 4:48.00 | 1:21.50 | 21600 | 27724
5 | 6:09.50 | 2:31.00 | 27725 | 39049
6 | 8:40.50 | 2:16.25 | 39050 | 49274
7 | 10:57.00 | 2:01.62 | 49275 | 58411
8 | 12:58.62 | 2:06.63 | 58412 | 67924
9 | 15:05.50 | 2:42.25 | 67925 | 80099
10 | 17:48.00 | 1:54.62 | 80100 | 88711
11 | 19:42.62 | 0:39.25 | 88712 | 91661
12 | 20:22.12 | 2:26.25 | 91662 | 102636
13 | 22:48.37 | 2:18.50 | 102637 | 113036
14 | 25:07.12 | 3:04.38 | 113037 | 126874
15 | 28:11.50 | 2:03.25 | 126875 | 136124
16 | 30:15.00 | 2:53.12 | 136125 | 149111
17 | 33:08.12 | 1:35.00 | 149112 | 156236
18 | 34:43.12 | 2:28.38 | 156237 | 167374
19 | 37:11.50 | 2:37.00 | 167375 | 179149
20 | 39:48.50 | 1:05.20 | 179150 | 184044
21 | 40:53.70 | 2:05.05 | 184045 | 193424
22 | 42:59.00 | 2:04.12 | 193425 | 202736
23 | 45:03.12 | 3:26.00 | 202737 | 218186
24 | 48:29.12 | 2:29.25 | 218187 | 229386
25 | 50:58.37 | 1:24.50 | 229387 | 235736
26 | 52:23.12 | 0:59.20 | 235737 | 240181
27 | 53:22.32 | 2:08.05 | 240182 | 249786
28 | 55:30.37 | 2:12.50 | 249787 | 259736
29 | 57:43.12 | 1:18.00 | 259737 | 265586
30 | 59:01.12 | 2:09.63 | 265587 | 275324
31 | 61:11.00 | 2:11.50 | 275325 | 285199
32 | 63:22.50 | 2:41.37 | 285200 | 297311
33 | 66:04.12 | 2:53.25 | 297312 | 310311
34 | 68:57.37 | 2:19.50 | 310312 | 320786
35 | 71:17.12 | 2:35.38 | 320787 | 332449
36 | 73:52.50 | 2:25.50 | 332450 | 343374


Range status and errors

Selected range

Filename C:\Program Files\Exact Audio Copy\Flac\Albinoni - 12 Concerti a cinque Op. 5.wav

Peak level 100.0 %
Extraction speed 8.4 X
Range quality 100.0 %
Test CRC 5236C54A
Copy CRC 5236C54A
Copy OK

No errors occurred

End of status report

==== Log checksum 51B2F25B380E4AF3754E6F95C7E873EE0365134A7E33DEA79740B59191D243C3 ====

Simon Standage, Collegium Musicum 90 - Albinoni: 12 Concerti a cinque Op. 5 (2000)