Subcategories

Simone Kermes - Best Of (2011) (Repost)

Posted By: tirexiss
Simone Kermes - Best Of (2011) (Repost)

Simone Kermes - Best Of (2011)
EAC | FLAC (image+.cue, log) | Covers Included | 59:50 | 301 MB
Genre: Classical, Opera, Vocal | Label: Sony Classical | Catalog: 88697975852

Simone Kermes erhält den Echo Klassik 2011 als Sängerin des Jahres. Die aus Dresden stammende Sängerin wurde für ihre CD "Colori d´amore" ausgezeichnet, die Publikum und Presse gleichermaßen begeisterte: "eines der besten Volkalrecitals der letzten Jahre", urteilte Fono Forum. Die "Best of Simone Kermes" zeigt die "Queen of Baroque" in der gesamten Bandbreite ihres Könnens - mit entdeckenswerter Musik von Händel, Bononcini, Hasse, Haydn, Scarlatti, Pergolesi u. a. - lauter entdeckenswerte, oft völlig zu Unrecht vergessene Arienperlen.

Simone Kermes - Best Of (2011) (Repost)

Track List:

01. Xerse, Act 1 - Frondi tenere… Ombra mai fù Bononcini
02. Viriate, Act 2 - Come nave in mezzo all'onde Hasse
03. Lotario, Act 1 - Scherza in mar nacivella Handel
04. Die Schöpfung (The Creation) - Mit Staunen sieht das Wunderwek Haydn
05. L’Olimpiade, Act 2 - Tu me da me dividi Pergolesi
06. Rinaldo, Act 2 - Ah! Crudel Handel
07. Il prigioniero fortunato, Act 3 - Ondeggiante agitato Scarlatti
08. Lotario, Act 3 - Non sempre invendicata Handel
09. Die Schöpfung (The Creation) - Nun beut die Flur das frische Grün Haydn
10. Cajo Marzio Corioloano, Act 2 - Ha vinto amor… per combatter con lo sdegno Caldara
11. Amadigi di Gaula, Act 2 - Desterò dall'empia Dite Handel
12. Lucio Papirio, Act 2 - Morte Amara Porpora
13. L'inimico generoso - Deh Lasciatemi Pensieri Caldara

Le Musiche Nove, Claudio Osele
Il Complesso Barocco, Alan Curtis
Balthasar-Neumann-Chor, Balthasar-Neumann-Ensemble, Thomas Hengelbrock

Exact Audio Copy V0.99 prebeta 5 from 4. May 2009

Отчёт EAC об извлечении, выполненном 12. мая 2014, 17:24

Simone Kermes / Best Of

Дисковод: _NEC DVD_RW ND-4571A Adapter: 0 ID: 0

Режим чтения : Достоверность
Использование точного потока : Да
Отключение кэша аудио : Да
Использование указателей C2 : Нет

Коррекция смещения при чтении : 48
Способность читать области Lead-in и Lead-out : Нет
Заполнение пропущенных сэмплов тишиной : Да
Удаление блоков с тишиной в начале и конце : Нет
При вычислениях CRC использовались нулевые сэмплы : Да
Интерфейс : Встроенный Win32-интерфейс для Win NT/2000

Выходной формат : Пользовательский кодировщик
Выбранный битрейт : 768 kBit/s
Качество : Высокий
Добавление ID3-тэга : Нет
Утилита сжатия : C:\Program Files\Exact Audio Copy\Flac\flac.exe
Дополнительные параметры : -6 -V -T "ARTIST=%a" -T "TITLE=%t" -T "ALBUM=%g" -T "DATE=%y" -T "TRACKNUMBER=%n" -T "GENRE=%m" -T "COMMENT=%e" %s -o %d


TOC извлечённого CD

Трек | Старт | Длительность | Начальный сектор | Конечный сектор
––––––––––––––––––––––––––––––––––-
1 | 0:00.00 | 3:30.64 | 0 | 15813
2 | 3:30.64 | 5:24.61 | 15814 | 40174
3 | 8:55.50 | 5:46.21 | 40175 | 66145
4 | 14:41.71 | 2:10.61 | 66146 | 75956
5 | 16:52.57 | 2:47.23 | 75957 | 88504
6 | 19:40.05 | 5:35.24 | 88505 | 113653
7 | 25:15.29 | 2:37.55 | 113654 | 125483
8 | 27:53.09 | 4:34.29 | 125484 | 146062
9 | 32:27.38 | 5:18.64 | 146063 | 169976
10 | 37:46.27 | 5:30.12 | 169977 | 194738
11 | 43:16.39 | 6:06.09 | 194739 | 222197
12 | 49:22.48 | 5:15.73 | 222198 | 245895
13 | 54:38.46 | 5:28.05 | 245896 | 270500


Характеристики диапазона извлечения и сообщения об ошибках

Выбранный диапазон

Имя файла F:\EAC\Simone Kermes - Best Of\Simone Kermes - Best Of.wav

Пиковый уровень 99.9 %
Качество диапазона 100.0 %
CRC копии 2B7BE9F0
Копирование… OK

Ошибок не произошло


AccurateRip: сводка

Трек 1 точность не определена (достоверность 6) [499F5F8D], AccurateRip вернул [05337503]
Трек 2 точность не определена (достоверность 6) [56D61E14], AccurateRip вернул [0140174F]
Трек 3 точность не определена (достоверность 6) [6E3ACF98], AccurateRip вернул [548D2A4C]
Трек 4 точность не определена (достоверность 6) [50CB7CFB], AccurateRip вернул [7F53C163]
Трек 5 точность не определена (достоверность 6) [E03F874A], AccurateRip вернул [6AC44263]
Трек 6 точность не определена (достоверность 6) [6CA97EAF], AccurateRip вернул [88BACADD]
Трек 7 точность не определена (достоверность 6) [1187DC93], AccurateRip вернул [F311ED91]
Трек 8 точность не определена (достоверность 6) [3FBB67E8], AccurateRip вернул [82EE77F1]
Трек 9 точность не определена (достоверность 6) [F3215BF8], AccurateRip вернул [C04193B6]
Трек 10 точность не определена (достоверность 6) [689864F7], AccurateRip вернул [F5D77DBA]
Трек 11 точность не определена (достоверность 6) [22D29389], AccurateRip вернул [4E6E6D10]
Трек 12 точность не определена (достоверность 6) [4ECA412F], AccurateRip вернул [83140555]
Трек 13 точность не определена (достоверность 6) [0311EAB4], AccurateRip вернул [E3EA04F9]

Ни один трек не прошёл проверки на точность
В вашей базе может быть иной вариант штамповки диска

Конец отчёта

[CUETools log; Date: 18.07.2017 11:11:13; Version: 2.1.5]
[CTDB TOCID: TpPYZUPuxrsJi0WjjUpO9dctCmQ-] found.
Track | CTDB Status
1 | (15/15) Accurately ripped
2 | (15/15) Accurately ripped
3 | (15/15) Accurately ripped
4 | (15/15) Accurately ripped
5 | (15/15) Accurately ripped
6 | (15/15) Accurately ripped
7 | (15/15) Accurately ripped
8 | (15/15) Accurately ripped
9 | (15/15) Accurately ripped
10 | (15/15) Accurately ripped
11 | (15/15) Accurately ripped
12 | (15/15) Accurately ripped
13 | (15/15) Accurately ripped
[AccurateRip ID: 001b1605-0111a4c3-bf0e160d] found.
Track [ CRC | V2 ] Status
01 [499f5f8d|05337503] (0+8/8) Accurately ripped
02 [56d61e14|0140174f] (0+8/8) Accurately ripped
03 [6e3acf98|548d2a4c] (0+8/8) Accurately ripped
04 [50cb7cfb|7f53c163] (0+8/8) Accurately ripped
05 [e03f874a|6ac44263] (0+8/8) Accurately ripped
06 [6ca97eaf|88bacadd] (0+8/8) Accurately ripped
07 [1187dc93|f311ed91] (0+8/8) Accurately ripped
08 [3fbb67e8|82ee77f1] (0+8/8) Accurately ripped
09 [f3215bf8|c04193b6] (0+8/8) Accurately ripped
10 [689864f7|f5d77dba] (0+8/8) Accurately ripped
11 [22d29389|4e6e6d10] (0+8/8) Accurately ripped
12 [4eca412f|83140555] (0+8/8) Accurately ripped
13 [0311eab4|e3ea04f9] (0+8/8) Accurately ripped

Track Peak [ CRC32 ] [W/O NULL] [ LOG ]
– 99,9 [2B7BE9F0] [E2597B65] CRC32
01 98,2 [FE1707A7] [130E89F2]
02 98,9 [7C49204D] [D634E5A2]
03 98,3 [0007E58F] [9FB2029F]
04 98,4 [2C6E31EB] [E3430EF4]
05 98,8 [85D4CB1D] [6FCBC112]
06 99,9 [ACD7AD32] [A4D160D0]
07 86,1 [AB9777FF] [37FA9404]
08 97,8 [56F31FD0] [BE973968]
09 96,5 [8E794DCC] [00676A92]
10 98,8 [F07776C2] [4E4CBFC5]
11 99,9 [8B6A2311] [30199989]
12 93,6 [DEDC824C] [4842D151]
13 98,1 [1BDB2EA7] [F0859423]

Simone Kermes - Best Of (2011) (Repost)

Thanks to the Original ripper (unknown)!

Download: