Subcategories

Simple Minds - Once Upon A Time (1985) [2015, 5CD + DVD Super Deluxe Box Set]

Posted By: v3122
Simple Minds - Once Upon A Time (1985) [2015, 5CD + DVD Super Deluxe Box Set]

Simple Minds - Once Upon A Time (1985)
EAC | Flac(Image) + Cue + Log & MP3 CBR 320Kbps
Virgin/Universal Music, 4722072 | ~ 1997 or 640 Mb | Scans(png) -> 533 Mb
DVD9: NTSC 16:9 (720x480) VBR | Dolby AC3, 6 ch, 448 Kbps
DTS 6 ch, 1509 Kbps / LinearPCM, 2 ch, 4608 Kbps -> 7.22 Gb
Rock / New Wave / Pop Rock / Synth-Pop

Originally released in October 1985, and coming hot on the heels of the global smash single ‘(Don’t You) Forget About Me’ , ‘Once Upon A Time’ was to prove the album that propelled Simple Minds to stratospheric heights of artistic and commercial success. Containing the classic hit singles ‘Alive And Kicking’, ‘All The Things She Said’, ‘Sanctify Yourself’, and ‘Ghostdancing’ the original era-defining Number 1 album now comes as part of this incredible 5CD / 1DVD box set. Bonus discs include a wealth of supplementary tracks, including the original and extended versions of ‘(Don’t You) Forget About Me’, single edits, 12” mixes, B-sides, unreleased tracks and the 2-disc ‘Live In The City Of Light’ concert. The DVD includes an audio version of the album with a high-res 96/24, 5.1 mix plus all the promo videos, as well a 36-page booklet with rare photos, new interviews with Jim Kerr and Charlie Burchill and a track-by-track guide. It really is the ultimate word on a very fine album.

~ amazon
Simple Minds - Once Upon A Time (1985) [2015, 5CD + DVD Super Deluxe Box Set]

Simple Minds - Once Upon A Time (1985):

Simple Minds - Once Upon A Time (1985) [2015, 5CD + DVD Super Deluxe Box Set]

Tracklist CD1 - Original Album:

01 Once Upon A Time
02 All The Things She Said
03 Ghost Dancing
04 Alive And Kicking
05 Oh Jungleland
06 I Wish You Were Here
07 Sanctify Yourself
08 Come A Long Way

Exact Audio Copy V1.1 from 23. June 2015

EAC extraction logfile from 2. September 2016, 20:40

Simple Minds / Once Upon A Time CD1

Used drive : PLEXTOR BD-R PX-B950SA Adapter: 1 ID: 1

Read mode : Secure
Utilize accurate stream : Yes
Defeat audio cache : Yes
Make use of C2 pointers : No

Read offset correction : 6
Overread into Lead-In and Lead-Out : No
Fill up missing offset samples with silence : Yes
Delete leading and trailing silent blocks : No
Null samples used in CRC calculations : Yes
Used interface : Native Win32 interface for Win NT & 2000

Used output format : Internal WAV Routines
Sample format : 44.100 Hz; 16 Bit; Stereo


TOC of the extracted CD

Track | Start | Length | Start sector | End sector
––––––––––––––––––––––––––––-
1 | 0:00.00 | 5:45.45 | 0 | 25919
2 | 5:45.45 | 4:15.64 | 25920 | 45108
3 | 10:01.34 | 4:45.05 | 45109 | 66488
4 | 14:46.39 | 5:26.00 | 66489 | 90938
5 | 20:12.39 | 5:13.64 | 90939 | 114477
6 | 25:26.28 | 4:42.31 | 114478 | 135658
7 | 30:08.59 | 4:57.68 | 135659 | 158001
8 | 35:06.52 | 5:08.63 | 158002 | 181164


Range status and errors

Selected range

Filename C:\Users\Meijin\Desktop\ALLexxess\Simple Minds\1985 Once Upon A Time (5CD + DVD Box Set Universal Music 2015)\CD1\Simple Minds - Once Upon A Time CD1.wav

Peak level 100.0 %
Extraction speed 6.8 X
Range quality 100.0 %
Test CRC 2B272628
Copy CRC 2B272628
Copy OK

No errors occurred


AccurateRip summary

Track 1 accurately ripped (confidence 8) [E422F068] (AR v2)
Track 2 accurately ripped (confidence 8) [7C12E2A3] (AR v2)
Track 3 accurately ripped (confidence 8) [FFD99C7B] (AR v2)
Track 4 accurately ripped (confidence 8) [F6DAB778] (AR v2)
Track 5 accurately ripped (confidence 8) [ED7F886D] (AR v2)
Track 6 accurately ripped (confidence 8) [488F1A12] (AR v2)
Track 7 accurately ripped (confidence 8) [B76BB081] (AR v2)
Track 8 accurately ripped (confidence 8) [BED40E59] (AR v2)

All tracks accurately ripped

End of status report

–– CUETools DB Plugin V2.1.6

[CTDB TOCID: HG9Y3QCgf1LtFJUFkWmJKDbFo4E-] found
Submit result: HG9Y3QCgf1LtFJUFkWmJKDbFo4E- has been confirmed
Track | CTDB Status
1 | (34/34) Accurately ripped
2 | (34/34) Accurately ripped
3 | (34/34) Accurately ripped
4 | (34/34) Accurately ripped
5 | (31/34) Accurately ripped
6 | (34/34) Accurately ripped
7 | (34/34) Accurately ripped
8 | (34/34) Accurately ripped


==== Log checksum E8DDC2A691C7A87F13A511C2EE7369CEB554A3CCC4A145F7F6205B5F26F40116 ====


[CUETools log; Date: 08.09.2016 21:11:35; Version: 2.1.4]
[CTDB TOCID: HG9Y3QCgf1LtFJUFkWmJKDbFo4E-] found.
Track | CTDB Status
1 | (35/35) Accurately ripped
2 | (35/35) Accurately ripped
3 | (35/35) Accurately ripped
4 | (35/35) Accurately ripped
5 | (32/35) Accurately ripped
6 | (35/35) Accurately ripped
7 | (35/35) Accurately ripped
8 | (35/35) Accurately ripped
[AccurateRip ID: 000c7a61-0052fd51-5e096f08] found.
Track [ CRC | V2 ] Status
01 [c6441d27|e422f068] (00+08/14) Accurately ripped
02 [ddd02137|7c12e2a3] (00+08/15) Accurately ripped
03 [351b625e|ffd99c7b] (00+08/14) Accurately ripped
04 [b5b68f25|f6dab778] (00+08/13) Accurately ripped
05 [d5b0f592|ed7f886d] (00+08/10) Accurately ripped
06 [52419112|488f1a12] (00+08/14) Accurately ripped
07 [1906741b|b76bb081] (00+08/14) Accurately ripped
08 [82d2ee00|bed40e59] (00+08/14) Accurately ripped
Offsetted by 12:
01 [8aba8d82] (00/14) No match (V2 was not tested)
02 [4f4dc9e6] (00/15) No match (V2 was not tested)
03 [0eee1214] (00/14) No match (V2 was not tested)
04 [f92d029c] (00/13) No match (V2 was not tested)
05 [40fd6826] (00/10) No match (V2 was not tested)
06 [7cfe0c70] (00/14) No match (V2 was not tested)
07 [d5beb070] (00/14) No match (V2 was not tested)
08 [c5716fd6] (00/14) No match (V2 was not tested)

Track Peak [ CRC32 ] [W/O NULL] [ LOG ]
– 100,0 [2B272628] [F7FE3391] CRC32
01 100,0 [A16464A5] [A395825A]
02 98,3 [25FB1599] [AEB71405]
03 99,1 [DA70FABF] [77E19C61]
04 100,0 [DB7405E6] [D3E7FB07]
05 100,0 [C5173758] [DE982E9B]
06 99,3 [73A0D1D9] [51743475]
07 99,6 [EE59E64A] [26E677DF]
08 100,0 [571B3A4C] [3FEEC399]


Simple Minds - Once Upon A Time (1985) [2015, 5CD + DVD Super Deluxe Box Set]

Tracklist CD2 - B-Sides & Rarities:

01 Don't You (Forget About Me)
02 A Brass Band In Africa
03 Don't You (Forget About Me) (Extended)
04 A Brass Band In African Chimes
05 Alive And Kicking (Edit)
06 Alive And Kicking (Instrumental)
07 Up On The Catwalk (Live)
08 Alive And Kicking (7'' Remix)
09 Alive And Kicking (12'' Remix)
10 Alive And Kicking (Kevorkian 12'' Remix)
11 Sanctify Yourself (Edit)
12 Sanctify Yourself (Instrumental)
13 Sanctify Yourself (Alternative Edit)

Exact Audio Copy V1.1 from 23. June 2015

EAC extraction logfile from 2. September 2016, 20:10

Simple Minds / Once Upon A Time CD2

Used drive : PLEXTOR BD-R PX-B950SA Adapter: 1 ID: 1

Read mode : Secure
Utilize accurate stream : Yes
Defeat audio cache : Yes
Make use of C2 pointers : No

Read offset correction : 6
Overread into Lead-In and Lead-Out : No
Fill up missing offset samples with silence : Yes
Delete leading and trailing silent blocks : No
Null samples used in CRC calculations : Yes
Used interface : Native Win32 interface for Win NT & 2000

Used output format : Internal WAV Routines
Sample format : 44.100 Hz; 16 Bit; Stereo


TOC of the extracted CD

Track | Start | Length | Start sector | End sector
––––––––––––––––––––––––––––-
1 | 0:00.00 | 4:23.03 | 0 | 19727
2 | 4:23.03 | 5:11.11 | 19728 | 43063
3 | 9:34.14 | 6:36.35 | 43064 | 72798
4 | 16:10.49 | 9:23.13 | 72799 | 115036
5 | 25:33.62 | 4:49.34 | 115037 | 136745
6 | 30:23.21 | 6:11.20 | 136746 | 164590
7 | 36:34.41 | 5:54.12 | 164591 | 191152
8 | 42:28.53 | 4:48.71 | 191153 | 212823
9 | 47:17.49 | 6:22.61 | 212824 | 241534
10 | 53:40.35 | 6:38.30 | 241535 | 271414
11 | 60:18.65 | 3:54.10 | 271415 | 288974
12 | 64:13.00 | 3:59.71 | 288975 | 306970
13 | 68:12.71 | 4:00.23 | 306971 | 324993


Range status and errors

Selected range

Filename C:\Users\Meijin\Desktop\ALLexxess\Simple Minds\1985 Once Upon A Time (5CD + DVD Box Set Universal Music 2015)\CD2\Simple Minds - Once Upon A Time CD2.wav

Peak level 99.9 %
Extraction speed 8.3 X
Range quality 99.9 %
Test CRC 2CC8030B
Copy CRC 2CC8030B
Copy OK

No errors occurred


AccurateRip summary

Track 1 accurately ripped (confidence 9) [F045D37A] (AR v2)
Track 2 accurately ripped (confidence 9) [EF5A6479] (AR v2)
Track 3 accurately ripped (confidence 9) [22BD38B8] (AR v2)
Track 4 accurately ripped (confidence 9) [6E458084] (AR v2)
Track 5 accurately ripped (confidence 9) [CFC34AF1] (AR v2)
Track 6 accurately ripped (confidence 9) [4A1ABDD1] (AR v2)
Track 7 accurately ripped (confidence 9) [638A4C8D] (AR v2)
Track 8 accurately ripped (confidence 9) [35183B19] (AR v2)
Track 9 accurately ripped (confidence 9) [7D18151E] (AR v2)
Track 10 accurately ripped (confidence 9) [C85CF13A] (AR v2)
Track 11 accurately ripped (confidence 9) [F16F844D] (AR v2)
Track 12 accurately ripped (confidence 9) [77202FC5] (AR v2)
Track 13 accurately ripped (confidence 9) [C4BC6032] (AR v2)

All tracks accurately ripped

End of status report

–– CUETools DB Plugin V2.1.6

[CTDB TOCID: 0Umj2Es39w_xDeA1A23cGav2zDw-] found
Submit result: 0Umj2Es39w_xDeA1A23cGav2zDw- has been confirmed
Track | CTDB Status
1 | (29/29) Accurately ripped
2 | (29/29) Accurately ripped
3 | (29/29) Accurately ripped
4 | (29/29) Accurately ripped
5 | (29/29) Accurately ripped
6 | (29/29) Accurately ripped
7 | (29/29) Accurately ripped
8 | (29/29) Accurately ripped
9 | (29/29) Accurately ripped
10 | (29/29) Accurately ripped
11 | (29/29) Accurately ripped
12 | (29/29) Accurately ripped
13 | (29/29) Accurately ripped


==== Log checksum E6F31A27DC4D8A6A95695E559F2FDC8E07744A4568A2315F1D21695D9962B567 ====


[CUETools log; Date: 08.09.2016 21:14:41; Version: 2.1.4]
[CTDB TOCID: 0Umj2Es39w_xDeA1A23cGav2zDw-] found.
Track | CTDB Status
1 | (30/30) Accurately ripped
2 | (30/30) Accurately ripped
3 | (30/30) Accurately ripped
4 | (30/30) Accurately ripped
5 | (30/30) Accurately ripped
6 | (30/30) Accurately ripped
7 | (30/30) Accurately ripped
8 | (30/30) Accurately ripped
9 | (30/30) Accurately ripped
10 | (30/30) Accurately ripped
11 | (30/30) Accurately ripped
12 | (30/30) Accurately ripped
13 | (30/30) Accurately ripped
[AccurateRip ID: 00247748-016c18bd-bf10ed0d] found.
Track [ CRC | V2 ] Status
01 [be3e2c1c|f045d37a] (00+09/15) Accurately ripped
02 [e3dc3493|ef5a6479] (00+09/15) Accurately ripped
03 [f3671f43|22bd38b8] (00+09/16) Accurately ripped
04 [bf3a11fd|6e458084] (00+09/15) Accurately ripped
05 [3dc377fb|cfc34af1] (00+09/15) Accurately ripped
06 [8fba7796|4a1abdd1] (00+09/15) Accurately ripped
07 [5f5cde1b|638a4c8d] (00+09/15) Accurately ripped
08 [ffb090c0|35183b19] (00+09/15) Accurately ripped
09 [dfb61c7d|7d18151e] (00+09/16) Accurately ripped
10 [cbeb3f47|c85cf13a] (00+09/16) Accurately ripped
11 [e65c8560|f16f844d] (00+09/15) Accurately ripped
12 [139314af|77202fc5] (00+09/15) Accurately ripped
13 [350e153b|c4bc6032] (00+09/15) Accurately ripped
Offsetted by 12:
01 [67702b5c] (00/15) No match (V2 was not tested)
02 [58f21997] (00/15) No match (V2 was not tested)
03 [2968b097] (00/16) No match (V2 was not tested)
04 [ede57dd1] (00/15) No match (V2 was not tested)
05 [254e251b] (00/15) No match (V2 was not tested)
06 [6913d286] (00/15) No match (V2 was not tested)
07 [006fc31f] (00/15) No match (V2 was not tested)
08 [f327422c] (00/15) No match (V2 was not tested)
09 [b6ec90ed] (00/16) No match (V2 was not tested)
10 [2127044b] (00/16) No match (V2 was not tested)
11 [546e780c] (00/15) No match (V2 was not tested)
12 [3e9289cb] (00/15) No match (V2 was not tested)
13 [8661975f] (00/15) No match (V2 was not tested)

Track Peak [ CRC32 ] [W/O NULL] [ LOG ]
– 99,9 [2CC8030B] [3809E5C7] CRC32
01 99,9 [6A0E3790] [D3FFF3F2]
02 98,1 [EEE4E417] [22BB8025]
03 99,2 [9DFD8275] [E0E9EDF1]
04 97,5 [3424C0C4] [680896A1]
05 99,6 [82BFEA6B] [E4A22737]
06 98,0 [42AA51E5] [2E47F547]
07 97,5 [013FEEFA] [B88408A0]
08 97,7 [AE2A4DBD] [3DF1AD6E]
09 99,0 [11E86BB8] [B79AFDEB]
10 99,6 [601F61AD] [9D4E323D]
11 99,5 [36FAB51B] [27352F3C]
12 98,1 [B621FAE4] [6F2495C5]
13 97,3 [5F4E3719] [F90CDCC3]


Simple Minds - Once Upon A Time (1985) [2015, 5CD + DVD Super Deluxe Box Set]

Tracklist CD3 - B-Sides & Rarities:

01 Street Hassle (Live)
02 Love Song (Live)
03 Sanctify Yourself (Extended)
04 Sanctify Yourself (Dub)
05 All The Things She Said (Edit)
06 Promised You A Miracle (US Remix)
07 All The Things She Said (Extended)
08 Don't You (Forget About Me) (Live)
09 Ghost Dancing (Special Extended 12'' Remix)
10 Ghost Dancing (Instrumental)
11 Oh Jungleland (Special Extended 12'' Remix)
12 Oh Jungleland (Instrumental)

Exact Audio Copy V1.1 from 23. June 2015

EAC extraction logfile from 31. August 2016, 19:40

Simple Minds / Once Upon A Time CD3

Used drive : PLEXTOR BD-R PX-B950SA Adapter: 1 ID: 1

Read mode : Secure
Utilize accurate stream : Yes
Defeat audio cache : Yes
Make use of C2 pointers : No

Read offset correction : 6
Overread into Lead-In and Lead-Out : No
Fill up missing offset samples with silence : Yes
Delete leading and trailing silent blocks : No
Null samples used in CRC calculations : Yes
Used interface : Native Win32 interface for Win NT & 2000

Used output format : Internal WAV Routines
Sample format : 44.100 Hz; 16 Bit; Stereo


TOC of the extracted CD

Track | Start | Length | Start sector | End sector
––––––––––––––––––––––––––––-
1 | 0:00.00 | 7:29.25 | 0 | 33699
2 | 7:29.25 | 5:43.23 | 33700 | 59447
3 | 13:12.48 | 7:13.54 | 59448 | 91976
4 | 20:26.27 | 6:14.30 | 91977 | 120056
5 | 26:40.57 | 4:00.42 | 120057 | 138098
6 | 30:41.24 | 6:04.49 | 138099 | 165447
7 | 36:45.73 | 5:12.40 | 165448 | 188887
8 | 41:58.38 | 9:05.11 | 188888 | 229773
9 | 51:03.49 | 7:20.61 | 229774 | 262834
10 | 58:24.35 | 4:52.06 | 262835 | 284740
11 | 63:16.41 | 7:23.48 | 284741 | 318013
12 | 70:40.14 | 6:05.63 | 318014 | 345451


Range status and errors

Selected range

Filename C:\Users\Meijin\Desktop\ALLexxess\Simple Minds\1985 Once Upon A Time (5CD + DVD Box Set Universal Music 2015)\CD3\Simple Minds - Once Upon A Time CD3.wav

Peak level 100.0 %
Extraction speed 8.5 X
Range quality 100.0 %
Test CRC 85F0ABE0
Copy CRC 85F0ABE0
Copy OK

No errors occurred


AccurateRip summary

Track 1 accurately ripped (confidence 8) [8F5CF252] (AR v2)
Track 2 accurately ripped (confidence 8) [13A4272B] (AR v2)
Track 3 accurately ripped (confidence 8) [BDAA10CF] (AR v2)
Track 4 accurately ripped (confidence 8) [3F55909B] (AR v2)
Track 5 accurately ripped (confidence 8) [9B50EFFE] (AR v2)
Track 6 accurately ripped (confidence 8) [58F92ACB] (AR v2)
Track 7 accurately ripped (confidence 8) [EE506773] (AR v2)
Track 8 accurately ripped (confidence 8) [27E75F18] (AR v2)
Track 9 accurately ripped (confidence 8) [C6EBB784] (AR v2)
Track 10 accurately ripped (confidence 8) [5ACF0215] (AR v2)
Track 11 accurately ripped (confidence 8) [CDD2AFB5] (AR v2)
Track 12 accurately ripped (confidence 8) [ED18A0D2] (AR v2)

All tracks accurately ripped

End of status report

–– CUETools DB Plugin V2.1.6

[CTDB TOCID: t52dUiD3UyKibhS58TV7pA6mmto-] found
Submit result: t52dUiD3UyKibhS58TV7pA6mmto- has been confirmed
Track | CTDB Status
1 | (20/20) Accurately ripped
2 | (20/20) Accurately ripped
3 | (20/20) Accurately ripped
4 | (20/20) Accurately ripped
5 | (20/20) Accurately ripped
6 | (20/20) Accurately ripped
7 | (20/20) Accurately ripped
8 | (20/20) Accurately ripped
9 | (19/20) Accurately ripped
10 | (19/20) Accurately ripped
11 | (20/20) Accurately ripped
12 | (20/20) Accurately ripped


==== Log checksum 3F6E167F4F8470CA4789383DA3E8AFFEDF05841D3E7D183F8DD573A963C6F2DF ====


[CUETools log; Date: 08.09.2016 21:18:12; Version: 2.1.4]
[CTDB TOCID: t52dUiD3UyKibhS58TV7pA6mmto-] found.
Track | CTDB Status
1 | (21/21) Accurately ripped
2 | (21/21) Accurately ripped
3 | (21/21) Accurately ripped
4 | (21/21) Accurately ripped
5 | (21/21) Accurately ripped
6 | (21/21) Accurately ripped
7 | (21/21) Accurately ripped
8 | (21/21) Accurately ripped
9 | (20/21) Accurately ripped
10 | (20/21) Accurately ripped
11 | (21/21) Accurately ripped
12 | (21/21) Accurately ripped
[AccurateRip ID: 002227e1-013e1ab3-9d11fe0c] found.
Track [ CRC | V2 ] Status
01 [48a64da7|8f5cf252] (0+8/8) Accurately ripped
02 [63c4a6f8|13a4272b] (0+8/8) Accurately ripped
03 [5115102b|bdaa10cf] (0+8/8) Accurately ripped
04 [482579e9|3f55909b] (0+8/8) Accurately ripped
05 [d8d52ad1|9b50effe] (0+8/8) Accurately ripped
06 [833b4c51|58f92acb] (0+8/8) Accurately ripped
07 [7e9d0a75|ee506773] (0+8/8) Accurately ripped
08 [d70df846|27e75f18] (0+8/8) Accurately ripped
09 [62167075|c6ebb784] (0+8/8) Accurately ripped
10 [48b23928|5acf0215] (0+8/8) Accurately ripped
11 [c98b4273|cdd2afb5] (0+8/8) Accurately ripped
12 [a2843b37|ed18a0d2] (0+8/8) Accurately ripped

Track Peak [ CRC32 ] [W/O NULL] [ LOG ]
– 100,0 [85F0ABE0] [3F6B632F] CRC32
01 98,0 [82C6E89B] [2022303C]
02 100,0 [3D3AE6CF] [9F018ACD]
03 98,2 [0E895ABD] [7EB5AF39]
04 98,0 [CE22CCFC] [2AF868E9]
05 97,5 [5D6F5FD9] [0DB58698]
06 97,0 [1DF0A55E] [9A1F9E16]
07 100,0 [27F293B2] [4AAE2F96]
08 97,2 [F330C5E7] [E4A913C6]
09 100,0 [6A840536] [53BF09F1]
10 100,0 [DC6477BC] [02ED932F]
11 100,0 [2761A0ED] [1218DE7D]
12 100,0 [10386E3B] [E92FAC44]


Simple Minds - Once Upon A Time (1985) [2015, 5CD + DVD Super Deluxe Box Set]

Tracklist CD4 - Live In The City Of Light (Live From Le Zenith, Paris '86):

01 Ghost Dancing
02 Big Sleep
03 Waterfront
04 Promised You A Miracle
05 Someone Somewhere In Summertime
06 Oh Jungleland
07 Alive And Kicking

Exact Audio Copy V1.1 from 23. June 2015

EAC extraction logfile from 30. August 2016, 20:01

Simple Minds / Once Upon A Time CD4

Used drive : PLEXTOR BD-R PX-B950SA Adapter: 1 ID: 1

Read mode : Secure
Utilize accurate stream : Yes
Defeat audio cache : Yes
Make use of C2 pointers : No

Read offset correction : 6
Overread into Lead-In and Lead-Out : No
Fill up missing offset samples with silence : Yes
Delete leading and trailing silent blocks : No
Null samples used in CRC calculations : Yes
Used interface : Native Win32 interface for Win NT & 2000

Used output format : Internal WAV Routines
Sample format : 44.100 Hz; 16 Bit; Stereo


TOC of the extracted CD

Track | Start | Length | Start sector | End sector
––––––––––––––––––––––––––––-
1 | 0:00.00 | 7:22.04 | 0 | 33153
2 | 7:22.04 | 4:27.42 | 33154 | 53220
3 | 11:49.46 | 5:21.37 | 53221 | 77332
4 | 17:11.08 | 4:38.28 | 77333 | 98210
5 | 21:49.36 | 5:59.01 | 98211 | 125136
6 | 27:48.37 | 6:35.42 | 125137 | 154803
7 | 34:24.04 | 6:25.63 | 154804 | 183741


Range status and errors

Selected range

Filename C:\Users\Meijin\Desktop\ALLexxess\Simple Minds\1985 Once Upon A Time (5CD + DVD Box Set Universal Music 2015)\CD4\Simple Minds - Once Upon A Time CD4.wav

Peak level 100.0 %
Extraction speed 6.8 X
Range quality 100.0 %
Test CRC 799864BF
Copy CRC 799864BF
Copy OK

No errors occurred


AccurateRip summary

Track 1 accurately ripped (confidence 6) [9E4FDED6] (AR v2)
Track 2 accurately ripped (confidence 6) [0BF961B0] (AR v2)
Track 3 accurately ripped (confidence 6) [E2466D87] (AR v2)
Track 4 accurately ripped (confidence 6) [1AE5559B] (AR v2)
Track 5 accurately ripped (confidence 6) [B89E7B44] (AR v2)
Track 6 accurately ripped (confidence 6) [95BDA9EB] (AR v2)
Track 7 accurately ripped (confidence 6) [7C020061] (AR v2)

All tracks accurately ripped

End of status report

–– CUETools DB Plugin V2.1.6

[CTDB TOCID: hRRTmxPqbOIX_Za.r_AMCSyz0Gs-] found
Submit result: hRRTmxPqbOIX_Za.r_AMCSyz0Gs- has been confirmed
Track | CTDB Status
1 | ( 16/103) Accurately ripped
2 | (103/103) Accurately ripped
3 | (103/103) Accurately ripped
4 | (103/103) Accurately ripped
5 | ( 16/103) Accurately ripped
6 | ( 16/103) Accurately ripped
7 | ( 16/103) Accurately ripped


==== Log checksum 2D212F71BA3BC2D033F5D3D11EE2259F2AFF6782E7CF05BD299AF3168BFAAAC8 ====


[CUETools log; Date: 08.09.2016 21:21:23; Version: 2.1.4]
[CTDB TOCID: hRRTmxPqbOIX_Za.r_AMCSyz0Gs-] found.
Track | CTDB Status
1 | ( 17/105) Accurately ripped
2 | (105/105) Accurately ripped
3 | (105/105) Accurately ripped
4 | (105/105) Accurately ripped
5 | ( 17/105) Accurately ripped
6 | ( 17/105) Accurately ripped
7 | ( 17/105) Accurately ripped
[AccurateRip ID: 000b1262-004214f9-40099107] found.
Track [ CRC | V2 ] Status
01 [2fc9d0b8|9e4fded6] (000+006/152) Accurately ripped
02 [ce7ee92d|0bf961b0] (000+006/155) Accurately ripped
03 [d742a490|e2466d87] (000+006/155) Accurately ripped
04 [dc56bc1e|1ae5559b] (000+006/155) Accurately ripped
05 [a6a4e5a5|b89e7b44] (000+006/155) Accurately ripped
06 [577e56cf|95bda9eb] (000+006/155) Accurately ripped
07 [f02dcc09|7c020061] (000+006/156) Accurately ripped
Offsetted by -748:
01 [83678dbf] (000/152) No match (V2 was not tested)
02 [615c4d73] (000/155) No match (V2 was not tested)
03 [ce0306c3] (000/155) No match (V2 was not tested)
04 [73bc3688] (000/155) No match (V2 was not tested)
05 [93dea7dc] (000/155) No match (V2 was not tested)
06 [c97b2dd8] (000/155) No match (V2 was not tested)
07 [9351bd35] (000/156) No match
Offsetted by -700:
01 [98b72974] (000/152) No match (V2 was not tested)
02 [e2af13a9] (019/155) Accurately ripped
03 [5bdc2de2] (019/155) Accurately ripped
04 [2ac8b0cd] (019/155) Accurately ripped
05 [635a2fb9] (000/155) No match (V2 was not tested)
06 [bbe28a2a] (000/155) No match (V2 was not tested)
07 [4aac97db] (000/156) No match
Offsetted by -658:
01 [5cb6fa6e] (000/152) No match (V2 was not tested)
02 [f138b060] (041/155) Accurately ripped
03 [8ab1c415] (041/155) Accurately ripped
04 [31d7f3de] (041/155) Accurately ripped
05 [11c25ee6] (000/155) No match (V2 was not tested)
06 [c41326f1] (000/155) No match (V2 was not tested)
07 [239f9615] (000/156) No match

Track Peak [ CRC32 ] [W/O NULL] [ LOG ]
– 100,0 [799864BF] [8A8BF1F0] CRC32
01 98,8 [05518F7E] [B956469D]
02 100,0 [69D5B771] [BB5B1FDF]
03 98,8 [123D69E5] [9C320808]
04 98,8 [B42B5975] [1EECBCC0]
05 98,8 [10776E9A] [06D0A57D]
06 98,8 [3F86709B] [33330605]
07 98,8 [F919A15E] [0C7C8D56]


Simple Minds - Once Upon A Time (1985) [2015, 5CD + DVD Super Deluxe Box Set]

Tracklist CD5 - Live In The City Of Light (Live From Le Zenith, Paris '86):

01 Don't You (Forget About Me)
02 Once Upon A Time
03 Book Of Brilliant Things
04 East At Easter
05 Sanctify Yourself
06 Love Song / Sun City / Dance To The Music
07 New Gold Dream

Exact Audio Copy V1.1 from 23. June 2015

EAC extraction logfile from 30. August 2016, 19:30

Simple Minds / Once Upon A Time CD5

Used drive : PLEXTOR BD-R PX-B950SA Adapter: 1 ID: 1

Read mode : Secure
Utilize accurate stream : Yes
Defeat audio cache : Yes
Make use of C2 pointers : No

Read offset correction : 6
Overread into Lead-In and Lead-Out : No
Fill up missing offset samples with silence : Yes
Delete leading and trailing silent blocks : No
Null samples used in CRC calculations : Yes
Used interface : Native Win32 interface for Win NT & 2000

Used output format : Internal WAV Routines
Sample format : 44.100 Hz; 16 Bit; Stereo


TOC of the extracted CD

Track | Start | Length | Start sector | End sector
––––––––––––––––––––––––––––-
1 | 0:00.00 | 6:37.24 | 0 | 29798
2 | 6:37.24 | 6:06.20 | 29799 | 57268
3 | 12:43.44 | 4:53.35 | 57269 | 79278
4 | 17:37.04 | 4:20.54 | 79279 | 98832
5 | 21:57.58 | 7:06.15 | 98833 | 130797
6 | 29:03.73 | 7:02.36 | 130798 | 162483
7 | 36:06.34 | 5:29.08 | 162484 | 187166


Range status and errors

Selected range

Filename C:\Users\Meijin\Desktop\ALLexxess\Simple Minds\1985 Once Upon A Time (5CD + DVD Box Set Universal Music 2015)\CD5\Simple Minds - Once Upon A Time CD5.wav

Peak level 98.8 %
Extraction speed 6.8 X
Range quality 100.0 %
Test CRC 01E769D8
Copy CRC 01E769D8
Copy OK

No errors occurred


AccurateRip summary

Track 1 accurately ripped (confidence 6) [4872D8A0] (AR v2)
Track 2 accurately ripped (confidence 6) [AF862DC1] (AR v2)
Track 3 accurately ripped (confidence 6) [4D4D054B] (AR v2)
Track 4 accurately ripped (confidence 6) [4FBEDAA3] (AR v2)
Track 5 accurately ripped (confidence 6) [2CCBFDAC] (AR v2)
Track 6 accurately ripped (confidence 6) [C3E8E171] (AR v2)
Track 7 accurately ripped (confidence 6) [5D0245E1] (AR v2)

All tracks accurately ripped

End of status report

–– CUETools DB Plugin V2.1.6

[CTDB TOCID: 3zKq8cJ3qvA59TjjdTNKsbsih0w-] found
Submit result: 3zKq8cJ3qvA59TjjdTNKsbsih0w- has been confirmed
Track | CTDB Status
1 | ( 19/101) Accurately ripped
2 | ( 19/101) Accurately ripped
3 | ( 19/101) Accurately ripped
4 | ( 19/101) Accurately ripped
5 | ( 16/101) Accurately ripped
6 | ( 19/101) Accurately ripped
7 | ( 19/101) Accurately ripped


==== Log checksum EA10B91C86052A0B2FA2B8DCBAC656C21CA60CD5BBB5EB6BD568D7144C92CBDF ====


[CUETools log; Date: 08.09.2016 21:23:30; Version: 2.1.4]
[CTDB TOCID: 3zKq8cJ3qvA59TjjdTNKsbsih0w-] found.
Track | CTDB Status
1 | ( 21/104) Accurately ripped
2 | ( 21/104) Accurately ripped
3 | ( 21/104) Accurately ripped
4 | ( 21/104) Accurately ripped
5 | ( 18/104) Accurately ripped
6 | ( 21/104) Accurately ripped
7 | ( 21/104) Accurately ripped
[AccurateRip ID: 000b609d-00441677-6809bf07] found.
Track [ CRC | V2 ] Status
01 [01c65c5c|4872d8a0] (000+006/151) Accurately ripped
02 [25cc01db|af862dc1] (000+006/151) Accurately ripped
03 [29829a84|4d4d054b] (000+006/151) Accurately ripped
04 [a13c8f6c|4fbedaa3] (000+006/151) Accurately ripped
05 [62224c45|2ccbfdac] (000+006/151) Accurately ripped
06 [9781845b|c3e8e171] (000+006/151) Accurately ripped
07 [80b3497a|5d0245e1] (000+006/152) Accurately ripped
Offsetted by -700:
01 [b54e127c] (000/151) No match
02 [10ec38d5] (000/151) No match
03 [1428056f] (000/151) No match
04 [d8939ca1] (000/151) No match (V2 was not tested)
05 [66e786fb] (000/151) No match (V2 was not tested)
06 [4726dd02] (000/151) No match
07 [67ec0803] (000/152) No match
Offsetted by -658:
01 [c43df1ab] (000/151) No match
02 [33693e3f] (000/151) No match
03 [df67e64c] (000/151) No match
04 [48fd80a3] (000/151) No match (V2 was not tested)
05 [908923ba] (000/151) No match (V2 was not tested)
06 [cbd8ea52] (000/151) No match
07 [98b68476] (000/152) No match

Track Peak [ CRC32 ] [W/O NULL] [ LOG ]
– 98,8 [01E769D8] [FA91DC47] CRC32
01 98,8 [520DD613] [7E30E747]
02 98,8 [3FCF37AC] [3272B3EE]
03 98,8 [A8EEB007] [8E6B81BA]
04 98,8 [020D4CEC] [2F242D6B]
05 98,8 [EA3C97A5] [2D3385E4]
06 98,8 [C4E906C9] [E1E2AF12]
07 98,8 [84FBA86B] [66E08854]


Simple Minds - Once Upon A Time (1985) [2015, 5CD + DVD Super Deluxe Box Set]

Tracklist DVD:

5.1 Mix And Promo Videos
5.1. Surround / Hi-Res Stereo / Dolby Digital 5.1 Surround
01 Once Upon A Time
02 All The Things She Said
03 Ghost Dancing
04 Alive And Kicking
05 Oh Jungleland
06 I Wish You Were Here
07 Sanctify Yourself
08 Come A Long Away

Promo Videos
09 Don't You (Forget About Me)
10 Alive And Kicking
11 Sanctify Yourself
12 All The Things She Said
13 Ghost Dancing

Title: Simple Minds 1985 - Once Upon A Time - DVD
Size: 3.34 Gb ( 3 503 220,00 KBytes ) - DVD-5
Enabled regions: 1, 2, 3, 4, 5, 6, 7, 8

VTS_01 :
Play Length: 00:41:26
Video: NTSC 16:9 (720x480) VBR, Auto Letterboxed
Audio:
English (Dolby AC3, 6 ch)
English (DTS, 6 ch)

VTS_02 :
Play Length: 00:41:26
Video: NTSC 16:9 (720x480) VBR, Auto Letterboxed
Audio:
English (LinearPCM, 2 ch)

VTS_03 :
Play Length: 00:23:00
Video: NTSC 16:9 (720x480) VBR, Auto Letterboxed
Audio:
English (LinearPCM, 2 ch)


Simple Minds - Once Upon A Time (1985) [2015, 5CD + DVD Super Deluxe Box Set]

Simple Minds - Once Upon A Time (1985) [2015, 5CD + DVD Super Deluxe Box Set]

Simple Minds - Once Upon A Time (1985) [2015, 5CD + DVD Super Deluxe Box Set]

Simple Minds - Once Upon A Time (1985) [2015, 5CD + DVD Super Deluxe Box Set]

Simple Minds - Once Upon A Time (1985) [2015, 5CD + DVD Super Deluxe Box Set]

* * *

Simple Minds - Once Upon A Time (1985) [2015, 5CD + DVD Super Deluxe Box Set]

All thanks go to ALLexxess

Simple Minds in my Blog

Download Simple Minds - Once Upon A Time (1985):