Subcategories

Simple Minds - Street Fighting Years (1989) [2020, 4CD Super Deluxe Box Set]

Posted By: v3122
Simple Minds - Street Fighting Years (1989) [2020, 4CD Super Deluxe Box Set]

Simple Minds - Street Fighting Years (1989)
EAC | Flac(Image) + Cue + Log & MP3 CBR 320Kbps
Universal Music, 7701564 | ~ 1748 or 760 Mb | Artwork(png) -> 491 Mb
Electronic / Pop / Pop Rock / New Wave / Synth-Pop

Their first proper new release since the commercial breakthrough of Once Upon a Time (a live album intervened) and Simple Minds makes a decidedly, noncommercial follow-up. Street Fighting Years is a moody, dark affair. The music is yearning and most of the songs are politically charged lyrically. It was a move that could (and did) bring commercial failure. However, Street Fighting Years is an artistic and elegant album that might lack immediate choruses but draws in the listener. The title track takes some dramatic turns that give the gentle melody added thrust. "Take a Step Back" pulsates and "Wall of Love" rocks with conviction. Slower tracks like the brooding "Let It All Come Down" and a spirited run through the traditional "Belfast Child" are well done. Other noteworthy tracks include a version of the Peter Gabriel classic "Biko" and the soaring "Mandela Day." It might not have satisfied the band's newly won fans, but Street Fighting Years is an interesting, enjoyable album with some truly lovely moments.

by Tom Demalon, allmusic
Simple Minds - Street Fighting Years (1989) [2020, 4CD Super Deluxe Box Set]

Simple Minds - Street Fighting Years (1989):

Simple Minds - Street Fighting Years (1989) [2020, 4CD Super Deluxe Box Set]

Tracklist CD1 - Album / Remastered 2002:

01 Street Fighting Years
02 Soul Crying Out
03 Wall Of Love
04 This Is Your Land
05 Take A Step Back
06 Kick It In
07 Let It All Come Down
08 Mandela Day
09 Belfast Child
10 Biko
11 When Spirits Rise

Exact Audio Copy V1.3 from 2. September 2016

EAC extraction logfile from 26. March 2020, 10:21

Simple Minds / Street Fighting Years CD1 Album

Used drive : PLEXTOR BD-R PX-B950SA Adapter: 1 ID: 1

Read mode : Secure
Utilize accurate stream : Yes
Defeat audio cache : Yes
Make use of C2 pointers : No

Read offset correction : 6
Overread into Lead-In and Lead-Out : No
Fill up missing offset samples with silence : Yes
Delete leading and trailing silent blocks : No
Null samples used in CRC calculations : Yes
Used interface : Native Win32 interface for Win NT & 2000

Used output format : Internal WAV Routines
Sample format : 44.100 Hz; 16 Bit; Stereo


TOC of the extracted CD

Track | Start | Length | Start sector | End sector
––––––––––––––––––––––––––––-
1 | 0:00.00 | 6:25.01 | 0 | 28875
2 | 6:25.01 | 6:07.41 | 28876 | 56441
3 | 12:32.42 | 5:20.33 | 56442 | 80474
4 | 17:53.00 | 6:22.03 | 80475 | 109127
5 | 24:15.03 | 4:21.73 | 109128 | 128775
6 | 28:37.01 | 6:10.29 | 128776 | 156554
7 | 34:47.30 | 4:53.47 | 156555 | 178576
8 | 39:41.02 | 5:42.66 | 178577 | 204292
9 | 45:23.68 | 6:41.62 | 204293 | 234429
10 | 52:05.55 | 7:33.30 | 234430 | 268434
11 | 59:39.10 | 2:00.38 | 268435 | 277472


Range status and errors

Selected range

Filename C:\Users\Alex\Desktop\ALLexxess\Simple Minds\1989 Street Fighting Years (4CD Box Set Universal Music 2020)\CD1 Album\Simple Minds - Street Fighting Years CD1 Album.wav

Peak level 98.9 %
Extraction speed 7.3 X
Range quality 100.0 %
Test CRC FD12FE35
Copy CRC FD12FE35
Copy OK

No errors occurred


AccurateRip summary

Track 1 accurately ripped (confidence 1) [0BCB80E5] (AR v2)
Track 2 accurately ripped (confidence 1) [ACD39C79] (AR v2)
Track 3 accurately ripped (confidence 1) [32A21786] (AR v2)
Track 4 accurately ripped (confidence 1) [ADC3AA45] (AR v2)
Track 5 accurately ripped (confidence 1) [C8D3148F] (AR v2)
Track 6 accurately ripped (confidence 1) [49CD0725] (AR v2)
Track 7 accurately ripped (confidence 1) [70601361] (AR v2)
Track 8 accurately ripped (confidence 1) [574F68C4] (AR v2)
Track 9 accurately ripped (confidence 1) [27E6B694] (AR v2)
Track 10 accurately ripped (confidence 1) [8F32C9C6] (AR v2)
Track 11 accurately ripped (confidence 1) [EB5CD939] (AR v2)

All tracks accurately ripped

End of status report

–– CUETools DB Plugin V2.1.6

[CTDB TOCID: G4okPGV8kN3hNV4OzFs0CkEym20-] found
Submit result: G4okPGV8kN3hNV4OzFs0CkEym20- has been confirmed
Track | CTDB Status
1 | (22/22) Accurately ripped
2 | (22/22) Accurately ripped
3 | (22/22) Accurately ripped
4 | (22/22) Accurately ripped
5 | (22/22) Accurately ripped
6 | (22/22) Accurately ripped
7 | (22/22) Accurately ripped
8 | (22/22) Accurately ripped
9 | (22/22) Accurately ripped
10 | (22/22) Accurately ripped
11 | (22/22) Accurately ripped


==== Log checksum 29A56E4BD29FD0EAB412A4F201F41E44C85319CD9DC2B2E5DAA84EEF0ECA900E ====


[CUETools log; Date: 26.03.2020 11:05:43; Version: 2.1.4]
[AccurateRip ID: 001a4c44-00e2b3d6-a50e730b] found.
Track [ CRC | V2 ] Status
01 [3c4f551b|0bcb80e5] (0+1/1) Accurately ripped
02 [ab45c359|acd39c79] (0+1/1) Accurately ripped
03 [fa76ace8|32a21786] (0+1/1) Accurately ripped
04 [1a786863|adc3aa45] (0+1/1) Accurately ripped
05 [a4664b02|c8d3148f] (0+1/1) Accurately ripped
06 [7db2a6c7|49cd0725] (0+1/1) Accurately ripped
07 [d5ca552e|70601361] (0+1/1) Accurately ripped
08 [5a5c1c0c|574f68c4] (0+1/1) Accurately ripped
09 [bbce7052|27e6b694] (0+1/1) Accurately ripped
10 [289fdabc|8f32c9c6] (0+1/1) Accurately ripped
11 [63394bc5|eb5cd939] (0+1/1) Accurately ripped

Track Peak [ CRC32 ] [W/O NULL] [ LOG ]
– 98,9 [FD12FE35] [D805C0F3] CRC32
01 97,8 [1948B600] [43B1C03F]
02 97,7 [7F3A43F7] [6B1FBD02]
03 98,9 [E8E95C49] [3ABAD971]
04 98,1 [948720F1] [DD640B9B]
05 98,6 [2D3EF130] [DE5177E5]
06 98,6 [44E6E0D7] [B1C40837]
07 97,5 [E9107841] [45B8B34E]
08 97,9 [B0F26DF6] [6B85CFAF]
09 98,3 [36C2955F] [F9F023CC]
10 97,6 [61D6C23B] [8AA905B2]
11 95,1 [2408371B] [33ED84F7]


Simple Minds - Street Fighting Years (1989) [2020, 4CD Super Deluxe Box Set]

Tracklist CD2 - Edits, B-Sides And Remixes:

01 Belfast Child (Edit)
02 Mandela Day (Edit)
03 This Is Your Land (Edit)
04 Saturday Girl (B-Side)
05 Year Of The Dragon (B-Side)
06 This Is Your Land (DJ Version)
07 Kick It In (Edit)
08 Waterfront ('89 Remix)
09 Big Sleep (Live From The Point, Ireland / 1989)
10 Kick It In (Unauthorised Mix)
11 Sign O' The Times (Edit)
12 Let It All Come Down (Edit)
13 Sign O' The Times (B-Side)
14 Jerusalem (B-Side)
15 Sign O' The Times (C.J. Mackintosh Remix)

Exact Audio Copy V1.3 from 2. September 2016

EAC extraction logfile from 26. March 2020, 9:45

Simple Minds / Street Fighting Years CD2 Edits, B-Sides & Remixes

Used drive : PLEXTOR BD-R PX-B950SA Adapter: 1 ID: 1

Read mode : Secure
Utilize accurate stream : Yes
Defeat audio cache : Yes
Make use of C2 pointers : No

Read offset correction : 6
Overread into Lead-In and Lead-Out : No
Fill up missing offset samples with silence : Yes
Delete leading and trailing silent blocks : No
Null samples used in CRC calculations : Yes
Used interface : Native Win32 interface for Win NT & 2000

Used output format : Internal WAV Routines
Sample format : 44.100 Hz; 16 Bit; Stereo


TOC of the extracted CD

Track | Start | Length | Start sector | End sector
––––––––––––––––––––––––––––-
1 | 0:00.00 | 5:14.40 | 0 | 23589
2 | 5:14.40 | 4:10.60 | 23590 | 42399
3 | 9:25.25 | 4:49.68 | 42400 | 64142
4 | 14:15.18 | 6:10.50 | 64143 | 91942
5 | 20:25.68 | 3:07.43 | 91943 | 106010
6 | 23:33.36 | 5:04.20 | 106011 | 128830
7 | 28:37.56 | 4:22.12 | 128831 | 148492
8 | 32:59.68 | 5:21.65 | 148493 | 172632
9 | 38:21.58 | 6:39.08 | 172633 | 202565
10 | 45:00.66 | 7:04.13 | 202566 | 234378
11 | 52:05.04 | 4:15.53 | 234379 | 253556
12 | 56:20.57 | 3:41.10 | 253557 | 270141
13 | 60:01.67 | 5:39.40 | 270142 | 295606
14 | 65:41.32 | 3:01.02 | 295607 | 309183
15 | 68:42.34 | 6:12.33 | 309184 | 337116


Range status and errors

Selected range

Filename C:\Users\Alex\Desktop\ALLexxess\Simple Minds\1989 Street Fighting Years (4CD Box Set Universal Music 2020)\CD2 Edits, B-Sides And Remixes\Simple Minds - Street Fighting Years CD2 Edits, B-Sides & Remixes.wav

Peak level 97.7 %
Extraction speed 6.7 X
Range quality 100.0 %
Test CRC 9AB70CC9
Copy CRC 9AB70CC9
Copy OK

No errors occurred


AccurateRip summary

Track 1 accurately ripped (confidence 2) [70743342] (AR v2)
Track 2 accurately ripped (confidence 2) [26EF2467] (AR v2)
Track 3 accurately ripped (confidence 2) [F6A7091B] (AR v2)
Track 4 accurately ripped (confidence 2) [68DD5DCB] (AR v2)
Track 5 accurately ripped (confidence 2) [05471600] (AR v2)
Track 6 accurately ripped (confidence 2) [C75CFA69] (AR v2)
Track 7 accurately ripped (confidence 2) [003DE5D5] (AR v2)
Track 8 accurately ripped (confidence 2) [96394C0A] (AR v2)
Track 9 accurately ripped (confidence 2) [71FA518B] (AR v2)
Track 10 accurately ripped (confidence 2) [77401BD4] (AR v2)
Track 11 accurately ripped (confidence 2) [4BD20B81] (AR v2)
Track 12 accurately ripped (confidence 2) [5F94835F] (AR v2)
Track 13 accurately ripped (confidence 2) [22628094] (AR v2)
Track 14 accurately ripped (confidence 2) [94224BA7] (AR v2)
Track 15 accurately ripped (confidence 2) [072E3493] (AR v2)

All tracks accurately ripped

End of status report

–– CUETools DB Plugin V2.1.6

[CTDB TOCID: qL.etYv5srxqleMMjiN2Bf81uY8-] found
Submit result: qL.etYv5srxqleMMjiN2Bf81uY8- has been confirmed
Track | CTDB Status
1 | (20/20) Accurately ripped
2 | (20/20) Accurately ripped
3 | (20/20) Accurately ripped
4 | (20/20) Accurately ripped
5 | (20/20) Accurately ripped
6 | (20/20) Accurately ripped
7 | (20/20) Accurately ripped
8 | (20/20) Accurately ripped
9 | (20/20) Accurately ripped
10 | (20/20) Accurately ripped
11 | (20/20) Accurately ripped
12 | (20/20) Accurately ripped
13 | (20/20) Accurately ripped
14 | (20/20) Accurately ripped
15 | (20/20) Accurately ripped


==== Log checksum 3012F22EA0831CC47EC177250B60673DA5711AC91BF5E813135C4C13C3FACC89 ====


[CUETools log; Date: 26.03.2020 11:09:04; Version: 2.1.4]
[AccurateRip ID: 0028e714-01d15f79-c8118e0f] found.
Track [ CRC | V2 ] Status
01 [a9352fb4|70743342] (0+2/2) Accurately ripped
02 [b9be8853|26ef2467] (0+2/2) Accurately ripped
03 [7cf6b7c5|f6a7091b] (0+2/2) Accurately ripped
04 [98848f76|68dd5dcb] (0+2/2) Accurately ripped
05 [7f05198c|05471600] (0+2/2) Accurately ripped
06 [db9fb102|c75cfa69] (0+2/2) Accurately ripped
07 [801d8da1|003de5d5] (0+2/2) Accurately ripped
08 [aa83f719|96394c0a] (0+2/2) Accurately ripped
09 [28f8b110|71fa518b] (0+2/2) Accurately ripped
10 [89683573|77401bd4] (0+2/2) Accurately ripped
11 [d1a1d231|4bd20b81] (0+2/2) Accurately ripped
12 [974c4c88|5f94835f] (0+2/2) Accurately ripped
13 [76b6e14c|22628094] (0+2/2) Accurately ripped
14 [a2ef209d|94224ba7] (0+2/2) Accurately ripped
15 [fd9ebf24|072e3493] (0+2/2) Accurately ripped

Track Peak [ CRC32 ] [W/O NULL] [ LOG ]
– 97,7 [9AB70CC9] [86DAD58B] CRC32
01 97,7 [B3AD67FC] [9456B9C8]
02 97,7 [612FEBF1] [793E247D]
03 97,7 [824D9EF9] [9FCFB7B1]
04 97,6 [2764CAAE] [872FFBC5]
05 97,4 [9894853B] [FAA6A9A9]
06 97,6 [6E1AA668] [29AAF91F]
07 97,7 [2EA9BB9B] [3661365C]
08 97,6 [37241BEF] [F245D5E9]
09 97,6 [C17CF234] [2D06E20F]
10 97,7 [5790A0C3] [BAFDCE81]
11 97,7 [280E63B7] [5DFA309C]
12 97,5 [661F4CBE] [B51D130E]
13 97,7 [60E689DA] [7338B198]
14 97,7 [2F22A8D9] [E7A8D4E2]
15 97,7 [F86789FE] [8CDA3577]


Simple Minds - Street Fighting Years (1989) [2020, 4CD Super Deluxe Box Set]

Tracklist CD3 - Verona 01:

01 Theme For Great Cities '90
02 When Spirits Rise
03 Street Fighting Years
04 Mandela Day
05 This Is Your Land
06 Soul Crying Out
07 Waterfront
08 Ghost Dancing
09 Book Of Brilliant Things
10 Don't You (Forget About Me)

Exact Audio Copy V1.3 from 2. September 2016

EAC extraction logfile from 25. March 2020, 20:20

Simple Minds / Street Fighting Years CD3 Verona 01

Used drive : PLEXTOR BD-R PX-B950SA Adapter: 1 ID: 1

Read mode : Secure
Utilize accurate stream : Yes
Defeat audio cache : Yes
Make use of C2 pointers : No

Read offset correction : 6
Overread into Lead-In and Lead-Out : No
Fill up missing offset samples with silence : Yes
Delete leading and trailing silent blocks : No
Null samples used in CRC calculations : Yes
Used interface : Native Win32 interface for Win NT & 2000

Used output format : Internal WAV Routines
Sample format : 44.100 Hz; 16 Bit; Stereo


TOC of the extracted CD

Track | Start | Length | Start sector | End sector
––––––––––––––––––––––––––––-
1 | 0:00.00 | 3:07.25 | 0 | 14049
2 | 3:07.25 | 2:23.12 | 14050 | 24786
3 | 5:30.37 | 7:36.49 | 24787 | 59035
4 | 13:07.11 | 8:29.73 | 59036 | 97283
5 | 21:37.09 | 8:34.02 | 97284 | 135835
6 | 30:11.11 | 7:55.42 | 135836 | 171502
7 | 38:06.53 | 5:26.35 | 171503 | 195987
8 | 43:33.13 | 7:41.29 | 195988 | 230591
9 | 51:14.42 | 4:53.21 | 230592 | 252587
10 | 56:07.63 | 8:58.36 | 252588 | 292973


Range status and errors

Selected range

Filename C:\Users\Alex\Desktop\ALLexxess\Simple Minds\1989 Street Fighting Years (4CD Box Set Universal Music 2020)\CD3-CD4 Verona 01 & 02\Simple Minds - Street Fighting Years CD3 Verona 01.wav

Peak level 100.0 %
Extraction speed 4.9 X
Range quality 99.9 %
Test CRC 23153E9D
Copy CRC 23153E9D
Copy OK

No errors occurred


AccurateRip summary

Track 1 accurately ripped (confidence 1) [CB0A8011] (AR v2)
Track 2 accurately ripped (confidence 1) [0753B534] (AR v2)
Track 3 accurately ripped (confidence 1) [484CE70F] (AR v2)
Track 4 accurately ripped (confidence 1) [B6054D52] (AR v2)
Track 5 accurately ripped (confidence 1) [E30F0F57] (AR v2)
Track 6 accurately ripped (confidence 1) [A9813B08] (AR v2)
Track 7 accurately ripped (confidence 1) [AB31B18C] (AR v2)
Track 8 accurately ripped (confidence 1) [B9EA839B] (AR v2)
Track 9 accurately ripped (confidence 1) [A0C8521A] (AR v2)
Track 10 accurately ripped (confidence 1) [BB7248EB] (AR v2)

All tracks accurately ripped

End of status report

–– CUETools DB Plugin V2.1.6

[CTDB TOCID: WYEfbJjGq0AhGKcoDbbve1mR33Y-] found
Submit result: WYEfbJjGq0AhGKcoDbbve1mR33Y- has been confirmed
Track | CTDB Status
1 | (15/15) Accurately ripped
2 | (15/15) Accurately ripped
3 | (15/15) Accurately ripped
4 | (15/15) Accurately ripped
5 | (15/15) Accurately ripped
6 | (15/15) Accurately ripped
7 | (15/15) Accurately ripped
8 | (15/15) Accurately ripped
9 | (15/15) Accurately ripped
10 | (15/15) Accurately ripped


==== Log checksum C8FC38FA54BB9D3E448869ECA999CBD2E44704E00BDFA6ABC1A3DBCA866965D2 ====


[CUETools log; Date: 26.03.2020 11:24:00; Version: 2.1.4]
[AccurateRip ID: 0016804e-00baa6c5-9d0f420a] found.
Track [ CRC | V2 ] Status
01 [3019b5e1|cb0a8011] (0+1/1) Accurately ripped
02 [c868ef91|0753b534] (0+1/1) Accurately ripped
03 [21f7ec3f|484ce70f] (0+1/1) Accurately ripped
04 [3260155b|b6054d52] (0+1/1) Accurately ripped
05 [1edbc001|e30f0f57] (0+1/1) Accurately ripped
06 [89970a9b|a9813b08] (0+1/1) Accurately ripped
07 [ffb26898|ab31b18c] (0+1/1) Accurately ripped
08 [abbf6f1f|b9ea839b] (0+1/1) Accurately ripped
09 [d204b788|a0c8521a] (0+1/1) Accurately ripped
10 [103d020f|bb7248eb] (0+1/1) Accurately ripped

Track Peak [ CRC32 ] [W/O NULL] [ LOG ]
– 100,0 [23153E9D] [5E570FE1] CRC32
01 97,7 [C699BFD7] [2117A6E7]
02 98,0 [B43AE5E3] [FB5FE54E]
03 98,3 [241001AA] [4767CD71]
04 98,8 [94DB95D3] [E2E6952A]
05 98,1 [AE7374F1] [C0926CEC]
06 100,0 [61AFBFF1] [48C64713]
07 98,0 [8187E4A1] [BE00D160]
08 98,3 [9E1D098B] [BD3BA070]
09 98,0 [DEB29C0B] [B20EFA23]
10 99,6 [88A5621D] [C092AC96]


Tracklist CD4 - Verona 02:

01 Gaelic Melody
02 Kick It In
03 Let It All Come Down
04 Belfast Child
05 Sun City
06 Biko
07 Sanctify Yourself
08 East At Easter
09 Alive And Kicking

Exact Audio Copy V1.3 from 2. September 2016

EAC extraction logfile from 24. March 2020, 20:06

Simple Minds / Street Fighting Years CD4 Verona 02

Used drive : PLEXTOR BD-R PX-B950SA Adapter: 1 ID: 1

Read mode : Secure
Utilize accurate stream : Yes
Defeat audio cache : Yes
Make use of C2 pointers : No

Read offset correction : 6
Overread into Lead-In and Lead-Out : No
Fill up missing offset samples with silence : Yes
Delete leading and trailing silent blocks : No
Null samples used in CRC calculations : Yes
Used interface : Native Win32 interface for Win NT & 2000

Used output format : Internal WAV Routines
Sample format : 44.100 Hz; 16 Bit; Stereo


TOC of the extracted CD

Track | Start | Length | Start sector | End sector
––––––––––––––––––––––––––––-
1 | 0:00.00 | 6:04.62 | 0 | 27361
2 | 6:04.62 | 6:50.64 | 27362 | 58175
3 | 12:55.51 | 5:34.28 | 58176 | 83253
4 | 18:30.04 | 9:50.70 | 83254 | 127573
5 | 28:20.74 | 5:36.57 | 127574 | 152830
6 | 33:57.56 | 9:43.57 | 152831 | 196612
7 | 43:41.38 | 6:34.70 | 196613 | 226232
8 | 50:16.33 | 6:14.48 | 226233 | 254330
9 | 56:31.06 | 7:16.10 | 254331 | 287040


Range status and errors

Selected range

Filename C:\Users\Alex\Desktop\ALLexxess\Simple Minds\1989 Street Fighting Years (4CD Box Set Universal Music 2020)\CD3-CD4 Verona 01 & 02\Simple Minds - Street Fighting Years CD4 Verona 02.wav

Peak level 100.0 %
Extraction speed 7.3 X
Range quality 100.0 %
Test CRC EA651F0A
Copy CRC EA651F0A
Copy OK

No errors occurred


AccurateRip summary

Track 1 accurately ripped (confidence 1) [91BAA0DD] (AR v2)
Track 2 accurately ripped (confidence 1) [E7259C47] (AR v2)
Track 3 accurately ripped (confidence 1) [765B26A6] (AR v2)
Track 4 accurately ripped (confidence 1) [DD365C10] (AR v2)
Track 5 accurately ripped (confidence 1) [1EBF58C2] (AR v2)
Track 6 accurately ripped (confidence 1) [7029C647] (AR v2)
Track 7 accurately ripped (confidence 1) [0EC26F66] (AR v2)
Track 8 accurately ripped (confidence 1) [988E0596] (AR v2)
Track 9 accurately ripped (confidence 1) [670C3066] (AR v2)

All tracks accurately ripped

End of status report

–– CUETools DB Plugin V2.1.6

[CTDB TOCID: 8mDlQIHP5rtOEqQ643lijA_9Ha8-] found
Submit result: 8mDlQIHP5rtOEqQ643lijA_9Ha8- has been confirmed
Track | CTDB Status
1 | (14/14) Accurately ripped
2 | (14/14) Accurately ripped
3 | (14/14) Accurately ripped
4 | (14/14) Accurately ripped
5 | (14/14) Accurately ripped
6 | (14/14) Accurately ripped
7 | (14/14) Accurately ripped
8 | (14/14) Accurately ripped
9 | (14/14) Accurately ripped


==== Log checksum F8C24855B49193D09AC19BA60F5E1DAC7D3BAFF7D9A08ED48B86A81497CD3A8E ====


[CUETools log; Date: 26.03.2020 11:26:37; Version: 2.1.4]
[AccurateRip ID: 00159127-009fa5cd-6e0ef309] found.
Track [ CRC | V2 ] Status
01 [4ca2d011|91baa0dd] (0+1/1) Accurately ripped
02 [b750b32f|e7259c47] (0+1/1) Accurately ripped
03 [8d978d76|765b26a6] (0+1/1) Accurately ripped
04 [1dfcb347|dd365c10] (0+1/1) Accurately ripped
05 [8e3cd85a|1ebf58c2] (0+1/1) Accurately ripped
06 [d840f54f|7029c647] (0+1/1) Accurately ripped
07 [cb2f7186|0ec26f66] (0+1/1) Accurately ripped
08 [2588099d|988e0596] (0+1/1) Accurately ripped
09 [eec4512a|670c3066] (0+1/1) Accurately ripped

Track Peak [ CRC32 ] [W/O NULL] [ LOG ]
– 100,0 [EA651F0A] [BB50B93B] CRC32
01 96,0 [A525677C] [4E193F57]
02 98,4 [C225594F] [440895DD]
03 99,1 [1EA76E75] [16C53D80]
04 98,1 [C8072526] [EE6102F7]
05 97,9 [6657484E] [3E562880]
06 97,8 [7B532067] [FED4BC49]
07 100,0 [47BBB5D0] [0C2335C8]
08 97,3 [66F24670] [2EB2BA82]
09 97,6 [B31270C3] [90FE4C9F]


Simple Minds - Street Fighting Years (1989) [2020, 4CD Super Deluxe Box Set]

All thanks go to ALLexxess

Simple Minds in my Blog

Download Simple Minds - Street Fighting Years (1989):