Tags
Language
Tags

Sinead O'Connor - She Who Dwells In The Secret Place Of The Most High Shall Abide Under The Shadow Of The Almighty (2003)

Posted By: Rtax
Sinead O'Connor - She Who Dwells In The Secret Place Of The Most High Shall Abide Under The Shadow Of The Almighty (2003)

Sinead O'Connor - She Who Dwells In The Secret Place Of The Most High Shall Abide Under The Shadow Of The Almighty (2003)
EAC Rip | 02:25:16 | FLAC (tracks, cue, log, scans) - 0.98 GB | MP3 CBR 320kbps - 361 MB
Alternative Rock, Acoustic, Pop Rock, Folk, Country
Label: Vanguard – 215-2, Vanguard – 216-2

She Who Dwells in the Secret Place of the Most High Shall Abide Under the Shadow of the Almighty (yeah, it's a mouthful, but at least it's not Fiona Apple's monolith), was reportedly Sinead O' Connor's final album – it wasn't – as she seeks another way of life as a spiritual pilgrim, O'Connor delved deep into her rare, B-side, unreleased, and compilation tracks and gives listeners a live album to boot over two discs. Released stateside on Vanguard, this is, despite its disparate nature, one of the most satisfying recordings she's ever delivered – the previous year's Sean-Nós Nua, her traditional album, was a knockout and perhaps her finest studio moment, but it went unnoticed here because Americans can't seem to forgive O'Connor for exercising her right to free speech (the audience at Bob Dylan's 30th anniversary concert should be especially ashamed). The studio sides released on disc one include her collaborations with everyone from Adrian Sherwood to the Asian Dub Foundation to Massive Attack to Roger Eno. Her covers of Dan Penn's "Do Right Woman," Boudleaux Bryant's "Love Hurts," and the B-52's' "Ain't It a Shame" are highly original, deeply moving, and satisfying. Her originals, such as "No Matter How Hard I Try," "Love Is Ours," "This Is a Rebel Song," and "Emma's Song," are eclipsed only by her readings of traditional Gaelic material. Her arrangements and those of her collaborators are top-flight. There are 19 cuts in all on disc one, and not a moribund moment in the bunch.

The live show on disc two is riveting; it is revelatory for its deep emotional commitment to the performance of the material at hand. On material such as "Molly Malone," "I Am Stretched on Your Grave," and "You Made Me the Thief of Your Heart," Celtic, reggae, and modern dance music come together in a singular mix of O'Connor's own design. Bottom line: it kicks ass. And the performance of Prince's "Nothing Compares 2 U" blows away the studio version with its searing sense of loss and grief. O'Connor's professionalism as a bandleader is not to be eclipsed by anyone. This 13-track set was simply the best record of 2003 at the time of its release. Her manner of getting inside the material is uncanny as she transforms herself with that gorgeous voice from track to track. Her protagonists and characters are people of this world to be sure, but they are also angels and haunted spirits, children, and broken lovers who have been laid waste by their honesty, much like the singer herself. O'Connor is easily the most misunderstood artist of her time, and her willingness to allow her restless spirit to seek happiness and indulge her emotions clearly makes people – particularly Americans – very uncomfortable and angry. If you cannot get past the person to appreciate the voice, it's your loss, as this is quite simply a presentation of pop culture that translates itself into high (yet very accessible) art for anyone with ears that are open.

Tracklist

CD1:
01. Regina caeli - 01:04
02. O filii et filiae - 03:15
03. My love I bring - 03:56
04. Do right woman - 03:55
05. Love hurts - 04:04
06. Ain't it a shame - 04:32
07. Chiquitita - 03:51
08. Brigidine Diana - 04:14
09. It's all good - 05:09
10. Love is ours (Demo) - 04:45
11. A hundred thousand angels - 03:20
12. You put your arms around me (Demo) - 05:00
13. Emma's song - 04:23
14. No matter how hard I try (Demo) - 04:24
15. Dense water, deeper down - 03:34
16. This is a rebel song - 03:50
17. 1000 mirrors - 04:53
18. Big bunch of junkie lies - 04:04
19. Song of Jerusalem - 05:52

Exact Audio Copy V1.0 beta 4 from 7. December 2014

EAC extraction logfile from 16. August 2015, 10:15

Sinead O'Connor / She Who Dwells… (Disc 1)

Used drive : TSSTcorpCDDVDW SH-224DB Adapter: 1 ID: 0

Read mode : Secure
Utilize accurate stream : Yes
Defeat audio cache : Yes
Make use of C2 pointers : No

Read offset correction : 6
Overread into Lead-In and Lead-Out : No
Fill up missing offset samples with silence : Yes
Delete leading and trailing silent blocks : No
Null samples used in CRC calculations : Yes
Used interface : Native Win32 interface for Win NT & 2000
Gap handling : Appended to previous track

Used output format : User Defined Encoder
Selected bitrate : 1024 kBit/s
Quality : High
Add ID3 tag : No
Command line compressor : C:\Program Files (x86)\Exact Audio Copy\Flac\flac.exe
Additional command line options : -8 -V -T "ARTIST=%artist%" -T "TITLE=%title%" -T "ALBUM=%albumtitle%" -T "DATE=%year%" -T "TRACKNUMBER=%tracknr%" -T "TOTALTRACKS=%numtracks%" -T "GENRE=%genre%" -T "ALBUMARTIST=%albumartist%" -T "ALBUM ARTIST=%albumartist%" -T "COMMENT=EAC Secure Mode, Test & Copy, AccurateRip, FLAC -8" %source%


TOC of the extracted CD

Track | Start | Length | Start sector | End sector
––––––––––––––––––––––––––––-
1 | 0:00.00 | 1:03.69 | 0 | 4793
2 | 1:03.69 | 3:14.73 | 4794 | 19416
3 | 4:18.67 | 3:55.54 | 19417 | 37095
4 | 8:14.46 | 3:55.04 | 37096 | 54724
5 | 12:09.50 | 4:03.33 | 54725 | 72982
6 | 16:13.08 | 4:31.38 | 72983 | 93345
7 | 20:44.46 | 3:50.71 | 93346 | 110666
8 | 24:35.42 | 4:14.20 | 110667 | 129736
9 | 28:49.62 | 5:09.28 | 129737 | 152939
10 | 33:59.15 | 4:45.05 | 152940 | 174319
11 | 38:44.20 | 3:20.10 | 174320 | 189329
12 | 42:04.30 | 4:59.51 | 189330 | 211805
13 | 47:04.06 | 4:22.45 | 211806 | 231500
14 | 51:26.51 | 4:24.25 | 231501 | 251325
15 | 55:51.01 | 3:34.33 | 251326 | 267408
16 | 59:25.34 | 3:49.74 | 267409 | 284657
17 | 63:15.33 | 4:53.24 | 284658 | 306656
18 | 68:08.57 | 4:03.38 | 306657 | 324919
19 | 72:12.20 | 5:54.13 | 324920 | 351482


Track 1

Filename C:\Users\biafr_000\Music\Sinead O'Connor - She Who Dwells… (2003) [FLAC]\CD1\01 - Regina Caeli.wav

Pre-gap length 0:00:02.00

Peak level 96.6 %
Extraction speed 1.3 X
Track quality 100.0 %
Test CRC 4D4D0060
Copy CRC 4D4D0060
Accurately ripped (confidence 15) [DCAE5F68] (AR v2)
Copy OK

Track 2

Filename C:\Users\biafr_000\Music\Sinead O'Connor - She Who Dwells… (2003) [FLAC]\CD1\02 - O Filii Et Filiae.wav

Pre-gap length 0:00:02.00

Peak level 94.4 %
Extraction speed 1.9 X
Track quality 100.0 %
Test CRC C0AC009F
Copy CRC C0AC009F
Accurately ripped (confidence 15) [8CB67268] (AR v2)
Copy OK

Track 3

Filename C:\Users\biafr_000\Music\Sinead O'Connor - She Who Dwells… (2003) [FLAC]\CD1\03 - My Love I Bring.wav

Pre-gap length 0:00:02.00

Peak level 96.6 %
Extraction speed 1.8 X
Track quality 99.9 %
Test CRC 15A4EC78
Copy CRC 15A4EC78
Accurately ripped (confidence 15) [559FF823] (AR v2)
Copy OK

Track 4

Filename C:\Users\biafr_000\Music\Sinead O'Connor - She Who Dwells… (2003) [FLAC]\CD1\04 - Do Right Woman, Do Right Man.wav

Pre-gap length 0:00:02.00

Peak level 75.0 %
Extraction speed 1.9 X
Track quality 99.9 %
Test CRC FD6CCA10
Copy CRC FD6CCA10
Accurately ripped (confidence 14) [F44991B9] (AR v2)
Copy OK

Track 5

Filename C:\Users\biafr_000\Music\Sinead O'Connor - She Who Dwells… (2003) [FLAC]\CD1\05 - Love Hurts.wav

Pre-gap length 0:00:02.00

Peak level 89.1 %
Extraction speed 2.4 X
Track quality 100.0 %
Test CRC 888782E4
Copy CRC 888782E4
Accurately ripped (confidence 15) [BA98354E] (AR v2)
Copy OK

Track 6

Filename C:\Users\biafr_000\Music\Sinead O'Connor - She Who Dwells… (2003) [FLAC]\CD1\06 - Ain't It A Shame.wav

Pre-gap length 0:00:02.00

Peak level 85.1 %
Extraction speed 2.6 X
Track quality 100.0 %
Test CRC 0F09E4EF
Copy CRC 0F09E4EF
Accurately ripped (confidence 15) [EEFA20BE] (AR v2)
Copy OK

Track 7

Filename C:\Users\biafr_000\Music\Sinead O'Connor - She Who Dwells… (2003) [FLAC]\CD1\07 - Chiquitita.wav

Pre-gap length 0:00:02.00

Peak level 79.4 %
Extraction speed 2.7 X
Track quality 100.0 %
Test CRC 31B80D62
Copy CRC 31B80D62
Accurately ripped (confidence 15) [2080DBAF] (AR v2)
Copy OK

Track 8

Filename C:\Users\biafr_000\Music\Sinead O'Connor - She Who Dwells… (2003) [FLAC]\CD1\08 - Brigidine Diana.wav

Pre-gap length 0:00:02.00

Peak level 72.4 %
Extraction speed 2.3 X
Track quality 99.9 %
Test CRC EB1E19A1
Copy CRC EB1E19A1
Accurately ripped (confidence 15) [70B0CF6C] (AR v2)
Copy OK

Track 9

Filename C:\Users\biafr_000\Music\Sinead O'Connor - She Who Dwells… (2003) [FLAC]\CD1\09 - It's All Good.wav

Pre-gap length 0:00:02.00

Peak level 93.3 %
Extraction speed 3.0 X
Track quality 100.0 %
Test CRC 9620E5DB
Copy CRC 9620E5DB
Accurately ripped (confidence 15) [D4EB67ED] (AR v2)
Copy OK

Track 10

Filename C:\Users\biafr_000\Music\Sinead O'Connor - She Who Dwells… (2003) [FLAC]\CD1\10 - Love Is Ours (Demo).wav

Pre-gap length 0:00:02.00

Peak level 84.1 %
Extraction speed 3.2 X
Track quality 100.0 %
Test CRC A41D8B92
Copy CRC A41D8B92
Accurately ripped (confidence 15) [2153FDEA] (AR v2)
Copy OK

Track 11

Filename C:\Users\biafr_000\Music\Sinead O'Connor - She Who Dwells… (2003) [FLAC]\CD1\11 - A Hundred Thousand Angels.wav

Pre-gap length 0:00:02.00

Peak level 98.8 %
Extraction speed 3.1 X
Track quality 100.0 %
Test CRC 00E9D4AB
Copy CRC 00E9D4AB
Accurately ripped (confidence 15) [7B56BAB6] (AR v2)
Copy OK

Track 12

Filename C:\Users\biafr_000\Music\Sinead O'Connor - She Who Dwells… (2003) [FLAC]\CD1\12 - You Put Your Arms Around Me (Demo).wav

Pre-gap length 0:00:02.00

Peak level 98.8 %
Extraction speed 3.4 X
Track quality 100.0 %
Test CRC 21226591
Copy CRC 21226591
Accurately ripped (confidence 15) [ED44CAD9] (AR v2)
Copy OK

Track 13

Filename C:\Users\biafr_000\Music\Sinead O'Connor - She Who Dwells… (2003) [FLAC]\CD1\13 - Emma's Song.wav

Pre-gap length 0:00:02.00

Peak level 83.1 %
Extraction speed 2.7 X
Track quality 99.9 %
Test CRC D156C6D5
Copy CRC D156C6D5
Accurately ripped (confidence 15) [DA3D1C3F] (AR v2)
Copy OK

Track 14

Filename C:\Users\biafr_000\Music\Sinead O'Connor - She Who Dwells… (2003) [FLAC]\CD1\14 - No Matter How Hard I Try (Demo).wav

Pre-gap length 0:00:02.00

Peak level 73.2 %
Extraction speed 3.6 X
Track quality 100.0 %
Test CRC 1AC692B5
Copy CRC 1AC692B5
Accurately ripped (confidence 15) [DDB6020F] (AR v2)
Copy OK

Track 15

Filename C:\Users\biafr_000\Music\Sinead O'Connor - She Who Dwells… (2003) [FLAC]\CD1\15 - Dense Water, Deeper Down.wav

Pre-gap length 0:00:02.00

Peak level 79.4 %
Extraction speed 2.7 X
Track quality 99.9 %
Test CRC 7E8ECAFE
Copy CRC 7E8ECAFE
Accurately ripped (confidence 15) [5440F0D6] (AR v2)
Copy OK

Track 16

Filename C:\Users\biafr_000\Music\Sinead O'Connor - She Who Dwells… (2003) [FLAC]\CD1\16 - This Is A Rebel Song.wav

Pre-gap length 0:00:02.00

Peak level 94.4 %
Extraction speed 3.6 X
Track quality 100.0 %
Test CRC 98B01C5D
Copy CRC 98B01C5D
Accurately ripped (confidence 15) [23CB24D7] (AR v2)
Copy OK

Track 17

Filename C:\Users\biafr_000\Music\Sinead O'Connor - She Who Dwells… (2003) [FLAC]\CD1\17 - 1000 Mirrors.wav

Pre-gap length 0:00:02.00

Peak level 90.1 %
Extraction speed 3.9 X
Track quality 100.0 %
Test CRC 0618CB4A
Copy CRC 0618CB4A
Accurately ripped (confidence 15) [B5D55EF2] (AR v2)
Copy OK

Track 18

Filename C:\Users\biafr_000\Music\Sinead O'Connor - She Who Dwells… (2003) [FLAC]\CD1\18 - Big Bunch Of Junkie Lies.wav

Pre-gap length 0:00:02.00

Peak level 98.8 %
Extraction speed 3.8 X
Track quality 100.0 %
Test CRC D57229DF
Copy CRC D57229DF
Accurately ripped (confidence 15) [F185D3EB] (AR v2)
Copy OK

Track 19

Filename C:\Users\biafr_000\Music\Sinead O'Connor - She Who Dwells… (2003) [FLAC]\CD1\19 - Song Of Jerusalem.wav

Pre-gap length 0:00:02.00

Peak level 76.5 %
Extraction speed 4.1 X
Track quality 100.0 %
Test CRC 21221298
Copy CRC 21221298
Accurately ripped (confidence 15) [F4AF6BC7] (AR v2)
Copy OK


All tracks accurately ripped

No errors occurred

End of status report

–– CUETools DB Plugin V2.1.4

[CTDB TOCID: zG7rAb5OW8hVkzWi8vJ9Fo7DBsY-] found
Submit result: zG7rAb5OW8hVkzWi8vJ9Fo7DBsY- has been confirmed
Track | CTDB Status
1 | (6/7) Accurately ripped
2 | (6/7) Accurately ripped
3 | (6/7) Accurately ripped
4 | (6/7) Accurately ripped
5 | (6/7) Accurately ripped
6 | (6/7) Accurately ripped
7 | (6/7) Accurately ripped
8 | (6/7) Accurately ripped
9 | (6/7) Accurately ripped
10 | (6/7) Accurately ripped
11 | (6/7) Accurately ripped
12 | (6/7) Accurately ripped
13 | (6/7) Accurately ripped
14 | (6/7) Accurately ripped
15 | (6/7) Accurately ripped
16 | (6/7) Accurately ripped
17 | (6/7) Accurately ripped
18 | (6/7) Accurately ripped
19 | (6/7) Accurately ripped


==== Log checksum FE356220E15572971554FAF5088725DFD768783811EBD70A20659C9623AC3578 ====


CD2: Recorded Live In Dublin 2002
01. Molly Malone - 03:57
02. Oro, Se Do Bheatha 'Bhaile - 03:07
03. The Singing Bird - 04:26
04. My Lagan Love - 05:13
05. I Am Stretched on Your Grave - 04:44
06. Nothing Compares 2 U - 05:41
07. John I Love You - 05:31
08. The Moorlough Shore - 05:42
09. You Made Me the Thief of Your Heart - 04:39
10. Paddy's Lament - 05:37
11. Thank You for Hearing Me - 05:12
12. Fire on Babylon - 07:33
13. The Last Day of Our Acquaintance - 05:58



Exact Audio Copy V1.1 from 23. June 2015

EAC extraction logfile from 19. August 2015, 15:34

Sinead O'Connor / She Who Dwells … (Disc 2)

Used drive : TSSTcorpCDDVDW SH-224DB Adapter: 1 ID: 0

Read mode : Secure
Utilize accurate stream : Yes
Defeat audio cache : Yes
Make use of C2 pointers : No

Read offset correction : 6
Overread into Lead-In and Lead-Out : No
Fill up missing offset samples with silence : Yes
Delete leading and trailing silent blocks : No
Null samples used in CRC calculations : Yes
Used interface : Native Win32 interface for Win NT & 2000
Gap handling : Appended to previous track

Used output format : User Defined Encoder
Selected bitrate : 1024 kBit/s
Quality : High
Add ID3 tag : No
Command line compressor : C:\Program Files (x86)\Exact Audio Copy\Flac\flac.exe
Additional command line options : -8 -V -T "ARTIST=%artist%" -T "TITLE=%title%" -T "ALBUM=%albumtitle%" -T "DATE=%year%" -T "TRACKNUMBER=%tracknr%" -T "TOTALTRACKS=%numtracks%" -T "GENRE=%genre%" -T "ALBUMARTIST=%albumartist%" -T "ALBUM ARTIST=%albumartist%" -T "COMMENT=EAC Secure Mode, Test & Copy, AccurateRip, FLAC -8" %source%


TOC of the extracted CD

Track | Start | Length | Start sector | End sector
––––––––––––––––––––––––––––-
1 | 0:00.00 | 3:56.62 | 0 | 17761
2 | 3:56.62 | 3:07.17 | 17762 | 31803
3 | 7:04.04 | 4:25.66 | 31804 | 51744
4 | 11:29.70 | 5:12.64 | 51745 | 75208
5 | 16:42.59 | 4:43.68 | 75209 | 96501
6 | 21:26.52 | 5:40.59 | 96502 | 122060
7 | 27:07.36 | 5:30.38 | 122061 | 146848
8 | 32:37.74 | 5:41.34 | 146849 | 172457
9 | 38:19.33 | 4:38.41 | 172458 | 193348
10 | 42:57.74 | 5:36.63 | 193349 | 218611
11 | 48:34.62 | 5:12.02 | 218612 | 242013
12 | 53:46.64 | 7:32.71 | 242014 | 275984
13 | 61:19.60 | 6:00.25 | 275985 | 303009


Track 1

Filename C:\Users\biafr_000\Music\CD2\01 - Molly Malone.wav

Pre-gap length 0:00:02.00

Peak level 98.8 %
Extraction speed 1.6 X
Track quality 100.0 %
Test CRC 9DB325D3
Copy CRC 9DB325D3
Accurately ripped (confidence 15) [CD3F45E0] (AR v2)
Copy OK

Track 2

Filename C:\Users\biafr_000\Music\CD2\02 - Oro, Se Do Bheatha 'Bhaile.wav

Peak level 98.8 %
Extraction speed 1.5 X
Track quality 99.9 %
Test CRC 12E89D34
Copy CRC 12E89D34
Accurately ripped (confidence 15) [7A3EC239] (AR v2)
Copy OK

Track 3

Filename C:\Users\biafr_000\Music\CD2\03 - The Singing Bird.wav

Pre-gap length 0:00:00.01

Peak level 94.4 %
Extraction speed 2.0 X
Track quality 100.0 %
Test CRC BA264192
Copy CRC BA264192
Accurately ripped (confidence 15) [7BF298CD] (AR v2)
Copy OK

Track 4

Filename C:\Users\biafr_000\Music\CD2\04 - My Lagan Love.wav

Peak level 94.4 %
Extraction speed 2.2 X
Track quality 100.0 %
Test CRC F69BA22C
Copy CRC F69BA22C
Accurately ripped (confidence 15) [92FDD45D] (AR v2)
Copy OK

Track 5

Filename C:\Users\biafr_000\Music\CD2\05 - I Am Stretched On Your Grave.wav

Peak level 92.2 %
Extraction speed 2.4 X
Track quality 100.0 %
Test CRC F69A4B5C
Copy CRC F69A4B5C
Accurately ripped (confidence 15) [7849D674] (AR v2)
Copy OK

Track 6

Filename C:\Users\biafr_000\Music\CD2\06 - Nothing Compares 2 U.wav

Peak level 92.2 %
Extraction speed 2.6 X
Track quality 100.0 %
Test CRC 62C3732F
Copy CRC 62C3732F
Accurately ripped (confidence 15) [0FD1640A] (AR v2)
Copy OK

Track 7

Filename C:\Users\biafr_000\Music\CD2\07 - John I Love You.wav

Peak level 91.2 %
Extraction speed 2.7 X
Track quality 100.0 %
Test CRC 4D9F86BA
Copy CRC 4D9F86BA
Accurately ripped (confidence 15) [CA1BE8F3] (AR v2)
Copy OK

Track 8

Filename C:\Users\biafr_000\Music\CD2\08 - The Moorlough Shore.wav

Peak level 91.2 %
Extraction speed 2.9 X
Track quality 100.0 %
Test CRC 28768C8A
Copy CRC 28768C8A
Accurately ripped (confidence 14) [F57DF141] (AR v2)
Copy OK

Track 9

Filename C:\Users\biafr_000\Music\CD2\09 - You Made Me The Thief Of Your Heart.wav

Peak level 91.2 %
Extraction speed 2.5 X
Track quality 99.9 %
Test CRC 30D8D25A
Copy CRC 30D8D25A
Accurately ripped (confidence 15) [EE17E26B] (AR v2)
Copy OK

Track 10

Filename C:\Users\biafr_000\Music\CD2\10 - Paddy's Lament.wav

Peak level 91.2 %
Extraction speed 3.1 X
Track quality 100.0 %
Test CRC 5929B590
Copy CRC 5929B590
Accurately ripped (confidence 15) [9E02DEE3] (AR v2)
Copy OK

Track 11

Filename C:\Users\biafr_000\Music\CD2\11 - Thank You For Hearing Me.wav

Peak level 91.2 %
Extraction speed 3.3 X
Track quality 100.0 %
Test CRC 2E6E55D9
Copy CRC 2E6E55D9
Accurately ripped (confidence 15) [5198C584] (AR v2)
Copy OK

Track 12

Filename C:\Users\biafr_000\Music\CD2\12 - Fire On Babylon.wav

Peak level 91.2 %
Extraction speed 3.5 X
Track quality 100.0 %
Test CRC 1CFC9FE2
Copy CRC 1CFC9FE2
Accurately ripped (confidence 15) [DA0E85DC] (AR v2)
Copy OK

Track 13

Filename C:\Users\biafr_000\Music\CD2\13 - The Last Day Of Our Acquaintance.wav

Peak level 91.2 %
Extraction speed 3.6 X
Track quality 100.0 %
Test CRC A17A9B2C
Copy CRC A17A9B2C
Accurately ripped (confidence 15) [A5515BF2] (AR v2)
Copy OK


All tracks accurately ripped

No errors occurred

End of status report

–– CUETools DB Plugin V2.1.6

[CTDB TOCID: MXLeqf4E_ex6IK8H.X770C4f.p8-] found
Submit result: already submitted
Track | CTDB Status
1 | (8/9) Accurately ripped
2 | (8/9) Accurately ripped
3 | (8/9) Accurately ripped
4 | (8/9) Accurately ripped
5 | (8/9) Accurately ripped
6 | (8/9) Accurately ripped
7 | (8/9) Accurately ripped
8 | (8/9) Accurately ripped
9 | (8/9) Accurately ripped
10 | (8/9) Accurately ripped
11 | (8/9) Accurately ripped
12 | (8/9) Accurately ripped
13 | (8/9) Accurately ripped


==== Log checksum E4A09277F2AF710C38E031B8F239B73BD3E336B8AF1FC8162E0CD52CA2E0B919 ====


Download from icerbox.com