Subcategories

Sky - Sky 3 (1981) {2015, Remastered} RE-UP

Posted By: popsakov
Sky - Sky 3 (1981) {2015, Remastered} RE-UP

Sky - Sky 3 (1981) {2015, Remastered}
EAC Rip | FLAC (Img) + Cue + Log ~ 240 Mb | MP3 CBR320 ~ 110 Mb
Full Scans ~ 70 Mb | RAR 5% Recovery
Progressive Rock | Esoteric Recordigs #ECLEC 22475

Esoteric Recordings are pleased to announce the next release in the continuing series of reissues of the entire catalogue by the legendary classical rock band Sky. Formed in 1979, Sky brought together the worlds of rock and classical music in a highly successful and inspiring way. Featuring the gifted talents of guitarist John Williams, percussionist Tristan Fry, legendary bass player Herbie Flowers, former Curved Air keyboard player Francis Monkman and guitarist Kevin Peek, Sky recorded their debut album at Abbey Road studios in the early months of 1979. The band’s self-titled debut reached the UK top ten in May 1979 and went on to achieve Platinum status in the UK and was also a major hit in Europe and Australia. Also a huge live attraction, SKY released their second album in April 1980. "Sky 2” was a fine achievement, featuring the hit single "Toccata”, and topped the UK album charts upon its release. For this, the band’s third album, Steve Gray replaced Francis Monkman on keyboards, but the band continued their run of success as Sky 3 reached the UK top ten upon its release in March 1981. The album’s success followed a highly memorable concert by the band at Westminster Abbey in London on February 24th 1981, which was recorded and broadcast by BBC Television and later released on home video cassette.

This Esoteric Recordings edition has been newly re-mastered and includes a companion DVD of Sky at Westminster Abbey, (the first ever DVD release of this classic concert). The original album artwork is fully restored and the booklet features a new essay.

***************

Sky - Sky 3 (1981) {2015, Remastered} RE-UP

Track List:

01. The Grace [00:31]
02. Chiropodie No. 1 [04:25]
03. Westwind [06:23]
04. Sarabande [03:05]
05. Connecting Rooms [07:17]
06. Moonroof [04:06]
07. Sister Rose [04:35]
08. Hello [04:15]
09. Dance Of The Big Fairies [03:25]
10. Meheeco [06:36]
11. Keep Me Safe And Keep Me Warm, Shelter Me From Darkness [00:58]

Exact Audio Copy V1.0 beta 4 from 7. December 2014

EAC extraction logfile from 20. March 2015, 10:35

Sky / Sky 3 (2015, CD+DVD, ELEC 22475)

Used drive : ATAPI iHAS124 B Adapter: 1 ID: 0

Read mode : Secure
Utilize accurate stream : Yes
Defeat audio cache : Yes
Make use of C2 pointers : No

Read offset correction : 6
Overread into Lead-In and Lead-Out : No
Fill up missing offset samples with silence : Yes
Delete leading and trailing silent blocks : No
Null samples used in CRC calculations : Yes
Used interface : Installed external ASPI interface

Used output format : User Defined Encoder
Selected bitrate : 128 kBit/s
Quality : High
Add ID3 tag : Yes
Command line compressor : C:\Program Files (x86)\Exact Audio Copy\Flac\flac.exe
Additional command line options : -V -8 -T "Date=%year%" -T "Genre=%genre%" %source%


TOC of the extracted CD

Track | Start | Length | Start sector | End sector
––––––––––––––––––––––––––––-
1 | 0:00.00 | 0:30.30 | 0 | 2279
2 | 0:30.30 | 4:24.37 | 2280 | 22116
3 | 4:54.67 | 6:22.65 | 22117 | 50831
4 | 11:17.57 | 3:04.12 | 50832 | 64643
5 | 14:21.69 | 7:16.26 | 64644 | 97369
6 | 21:38.20 | 4:05.36 | 97370 | 115780
7 | 25:43.56 | 4:34.50 | 115781 | 136380
8 | 30:18.31 | 4:14.60 | 136381 | 155490
9 | 34:33.16 | 3:24.72 | 155491 | 170862
10 | 37:58.13 | 6:35.74 | 170863 | 200561
11 | 44:34.12 | 0:57.18 | 200562 | 204854


Range status and errors

Selected range

Filename G:\CD\Sky - Sky 3.wav

Peak level 98.8 %
Extraction speed 5.4 X
Range quality 100.0 %
Test CRC B1152BB3
Copy CRC B1152BB3
Copy OK

No errors occurred


AccurateRip summary

Track 1 accurately ripped (confidence 2) [094A417B] (AR v2)
Track 2 accurately ripped (confidence 2) [4A9E6765] (AR v2)
Track 3 accurately ripped (confidence 2) [831DD0DF] (AR v2)
Track 4 accurately ripped (confidence 2) [9B4A3280] (AR v2)
Track 5 accurately ripped (confidence 2) [E4FAA082] (AR v2)
Track 6 accurately ripped (confidence 2) [2A5D6CD5] (AR v2)
Track 7 accurately ripped (confidence 2) [4EAFBE6A] (AR v2)
Track 8 accurately ripped (confidence 2) [87B35A8F] (AR v2)
Track 9 accurately ripped (confidence 2) [898F206A] (AR v2)
Track 10 accurately ripped (confidence 2) [E1222D52] (AR v2)
Track 11 accurately ripped (confidence 2) [D2CE575E] (AR v2)

All tracks accurately ripped

End of status report

–– CUETools DB Plugin V2.1.4

[CTDB TOCID: frC4VBwG1xxfs0BSaRI3Gdn.HOA-] found
Submit result: frC4VBwG1xxfs0BSaRI3Gdn.HOA- has been confirmed
Track | CTDB Status
1 | (3/3) Accurately ripped
2 | (3/3) Accurately ripped
3 | (3/3) Accurately ripped
4 | (3/3) Accurately ripped
5 | (3/3) Accurately ripped
6 | (3/3) Accurately ripped
7 | (3/3) Accurately ripped
8 | (3/3) Accurately ripped
9 | (3/3) Accurately ripped
10 | (3/3) Accurately ripped
11 | (3/3) Accurately ripped


==== Log checksum 4DD78DFB0AE8E885208DCE99E75B46976A91634926102C173DC1193B655D2C69 ====

foobar2000 1.2.6 / Dynamic Range Meter 1.1.1
log date: 2015-03-20 11:23:40

––––––––––––––––––––––––––––––––––––––––
Analyzed: Sky / Sky 3 (2015, CD+DVD, ELEC 22475)
––––––––––––––––––––––––––––––––––––––––

DR Peak RMS Duration Track
––––––––––––––––––––––––––––––––––––––––
DR11 -9.73 dB -24.39 dB 0:30 01-The Grace
DR11 -0.10 dB -14.23 dB 4:24 02-Chiropodie No. 1
DR12 -0.10 dB -15.14 dB 6:23 03-Westwind
DR13 -0.10 dB -18.05 dB 3:04 04-Sarabande
DR12 -0.10 dB -17.53 dB 7:16 05-Connecting Rooms
DR12 -0.10 dB -13.95 dB 4:05 06-Moonroof
DR13 -0.10 dB -16.54 dB 4:35 07-Sister Rose
DR14 -0.10 dB -19.85 dB 4:15 08-Hello
DR14 -0.10 dB -18.74 dB 3:25 09-Dance Of The Big Fairies
DR13 -0.10 dB -18.25 dB 6:36 10-Meheeco
DR12 -0.10 dB -17.58 dB 0:57 11-Keep Me Safe And Keep Me Warm, Shelter Me From Darkness
––––––––––––––––––––––––––––––––––––––––

Number of tracks: 11
Official DR value: DR12

Samplerate: 44100 Hz
Channels: 2
Bits per sample: 16
Bitrate: 702 kbps
Codec: FLAC
================================================================================

[CUETools log; Date: 20.03.2015 11:24:35; Version: 2.1.5]
[CTDB TOCID: frC4VBwG1xxfs0BSaRI3Gdn.HOA-] found.
Track | CTDB Status
1 | (4/4) Accurately ripped
2 | (4/4) Accurately ripped
3 | (4/4) Accurately ripped
4 | (4/4) Accurately ripped
5 | (4/4) Accurately ripped
6 | (4/4) Accurately ripped
7 | (4/4) Accurately ripped
8 | (4/4) Accurately ripped
9 | (4/4) Accurately ripped
10 | (4/4) Accurately ripped
11 | (4/4) Accurately ripped
[AccurateRip ID: 0012a238-00a5a506-8c0aab0b] found.
Track [ CRC | V2 ] Status
01 [bb23c024|094a417b] (0+2/2) Accurately ripped
02 [ae8cc027|4a9e6765] (0+2/2) Accurately ripped
03 [0c57c809|831dd0df] (0+2/2) Accurately ripped
04 [42de9d06|9b4a3280] (0+2/2) Accurately ripped
05 [1024628b|e4faa082] (0+2/2) Accurately ripped
06 [fb19f0d1|2a5d6cd5] (0+2/2) Accurately ripped
07 [601e7d20|4eafbe6a] (0+2/2) Accurately ripped
08 [f9b7ef5d|87b35a8f] (0+2/2) Accurately ripped
09 [01a4bdd6|898f206a] (0+2/2) Accurately ripped
10 [1d70a9c2|e1222d52] (0+2/2) Accurately ripped
11 [76aec4ac|d2ce575e] (0+2/2) Accurately ripped

Track Peak [ CRC32 ] [W/O NULL] [ LOG ]
– 98,8 [B1152BB3] [BDFBE90C] CRC32
01 32,6 [E8F73240] [47673900]
02 98,8 [2F063E1F] [2E52F612]
03 98,8 [D5EC3C46] [F4B9FDEB]
04 98,8 [BEA098B7] [507C25CD]
05 98,8 [350EAC0C] [4334CB07]
06 98,8 [4F281E8C] [3B40713C]
07 98,8 [F9AA62E2] [801C4527]
08 98,8 [6205C788] [E83B4AC8]
09 98,8 [30EC22AE] [CAAF91A3]
10 98,8 [893B5DAC] [04FC52F1]
11 98,8 [6B34DA5B] [42C8ACA4]

Sky - Sky 3 (1981) {2015, Remastered} RE-UP

All thanks go to gerrV

>>> My Blog <<<

Download from icerbox.com: