Subcategories

SnowFall - Cold Silence (2013) [Japanese Ed.]

Posted By: Andi_Deris
SnowFall - Cold Silence (2013) [Japanese Ed.]

SnowFall - Cold Silence (2013) [Japanese Ed.]
EAC Rip | FLAC: Image+Cue+Log | 455 Mb | MP3 CBR 320 kbps | 160 Mb | Scans | 66 Mb | Time: 58:01
Rubicon Music | RBNCD-1134
Melodic Hard Rock, AOR

SnowFall are a Scandinavian band that are based in a very cold part of Norway, hence their name and album title. PB is no stranger to the music scene, as he used to be in “Winter Parade”, which released two fine albums. When Winter Parade dissolved, PB and Tore formed Snowfall, and at first used a Norwegian vocalist, but hen Lee Small (Shy / Phenomena) came into the scene, and SnowFall really started to mature.

Musically the band sound like a mixture of British and American eighties bands such as Whitesnake, Giant and FireHouse, but they retain a Scandinavian trademark too -so you get the best of all worlds! The latest addition to SnowFall is a man used to all things “Cold”, none other than ColdSpell drummer Perra Johnson. To put the icing on the cake, Martin Kronlund of Sweden was hired to twiddle the knobs (mixing and mastering) and of course the result is flawless.

SnowFall - Cold Silence (2013) [Japanese Ed.]




SnowFall - Cold Silence (2013) [Japanese Ed.]


Track Listing

01. Don't Drive Me Home Tonight (5:00)
02. Citadel Of Hope (4:31)
03. House Of Prayer (5:01)
04. Heaven's Not Up There (5:03)
05. Jack Of Diamonds (3:56)
06. Wolf's Lair (4:46)
07. I Won't Be Lonely Anymore (4:09)
08. Stampede (4:13)
09. Oscillate (5:23)
10. Alexandria (4:11)
11. The Vesper Bell (6:38)
12. The Chosen Few (Bonus track for Japan) (5:10)

Produced by Martin Kronlund

The Band

• Lee Small (Shy, Pride, Gypsy Rose, Phenomena) - vocals
• Tore Meli - guitars
• PB Riise (Winter Paradise) - bass

*****
• Perra Johnson (ColdSpell) - drums
• Helge Flatgård - additional keyboards
• Bjørn Westum (Winter Paradise) - additional backing vocals

SnowFall - Cold Silence (2013) [Japanese Ed.]


Exact Audio Copy V1.0 beta 3 from 29. August 2011

EAC extraction logfile from 19. May 2013, 11:01

SnowFall / Cold Silence

Used drive : SlimtypeDVD A DS8A5SH Adapter: 0 ID: 1

Read mode : Secure
Utilize accurate stream : Yes
Defeat audio cache : Yes
Make use of C2 pointers : No

Read offset correction : 6
Overread into Lead-In and Lead-Out : No
Fill up missing offset samples with silence : Yes
Delete leading and trailing silent blocks : No
Null samples used in CRC calculations : Yes
Used interface : Native Win32 interface for Win NT & 2000

Used output format : User Defined Encoder
Selected bitrate : 320 kBit/s
Quality : High
Add ID3 tag : No
Command line compressor : C:\Program Files (x86)\Exact Audio Copy\Flac\flac.exe
Additional command line options : -V -8 -T "Date=%year%" -T "Genre=%genre%" %source%


TOC of the extracted CD

Track | Start | Length | Start sector | End sector
––––––––––––––––––––––––––––-
1 | 0:00.00 | 5:00.18 | 0 | 22517
2 | 5:00.18 | 4:31.27 | 22518 | 42869
3 | 9:31.45 | 5:01.69 | 42870 | 65513
4 | 14:33.39 | 5:03.66 | 65514 | 88304
5 | 19:37.30 | 3:56.00 | 88305 | 106004
6 | 23:33.30 | 4:46.29 | 106005 | 127483
7 | 28:19.59 | 4:09.54 | 127484 | 146212
8 | 32:29.38 | 4:13.21 | 146213 | 165208
9 | 36:42.59 | 5:23.26 | 165209 | 189459
10 | 42:06.10 | 4:11.65 | 189460 | 208349
11 | 46:18.00 | 6:38.11 | 208350 | 238210
12 | 52:56.11 | 5:10.30 | 238211 | 261490


Range status and errors

Selected range

Filename D:\My Music\SnowFall - 2013 Cold Silence (Japanese Edition)\SnowFall - Cold Silence.wav

Peak level 99.9 %
Extraction speed 4.6 X
Range quality 100.0 %
Test CRC 2E73F853
Copy CRC 2E73F853
Copy OK

No errors occurred


AccurateRip summary

Track 1 not present in database
Track 2 not present in database
Track 3 not present in database
Track 4 not present in database
Track 5 not present in database
Track 6 not present in database
Track 7 not present in database
Track 8 not present in database
Track 9 not present in database
Track 10 not present in database
Track 11 not present in database
Track 12 not present in database

None of the tracks are present in the AccurateRip database

End of status report

==== Log checksum 1CF9F0CB2D8B6EF4B6A4F25495FC0C5F2D9581801826EF27CC6170CE6AC4DAF5 ====


Many thanks to the original uploader: kolushew





Password: pass