Subcategories
Tags
Language
Tags

Snowy White And The White Flames - Reunited (2017) *PROPER* Re-Up

Posted By: popsakov
Snowy White And The White Flames - Reunited (2017) *PROPER* Re-Up

Snowy White And The White Flames - Reunited (2017)
EAC Rip | FLAC (Img) + Cue + Log ~ 343 Mb | MP3 CBR320 ~ 140 Mb
Full Scans ~ 109 Mb | 00:58:03 | RAR 5% Recovery
Blues Rock | Snowy White #SWWF 2017

Almost a year since his last release, the acclaimed British guitarist presents his new studio album! For his previous album, Released, Snowy spent two years working mainly on his own in his home studio; this time around however, he recorded the bulk of the tracks with his tried and trusted pals Kuma Harada (bass), Max Middleton (keys), Juan van Emmerloot, Richard Bailey (both drums) and Walter Latupeirissa (bass). In Snowy's own words: 'When I play music with friends that I respect and admire, both as players and as people, either doing live shows or in a recording environment, I feel that I'm exactly where I want to be. I feel at home. It's been a year or two since I last got together with the musicians who appear on this new album, called, for obvious reasons,'Reunited'. We had a great time working together again and I'm very happy with the way they interpreted my ideas, helping me evolve the songs from the simple outlines that I took into the studio into complete pieces of music. So I would like to thank my friends Kuma, Max, Walter, Juan and Richard for adding their good vibes to the sessions. I feel very honoured that my music was transformed and improved by these fine musicians, and I consider myself very lucky to have had the opportunity to work with them once again. Because of them, recording 'Reunited' was a lot of fun and has created yet another store of good memories, and, for me, that's what it's all about. Music and musicians evolve and change over time, so this album is just snapshot of how it was at that moment in Snowy's career. Tracks like 'Have I Got Blues For You', 'Headful Of Blues' and 'Emptyhanded' cover the bluesier side of things, whereas 'Where Will You Belong' and 'In California' are more reflective. 'Nuff Said' and 'I Know Our Time Ain't Long' are examples of the more up-tempo and rockier Snowy White. There's something for everybody, from the weird 'Long Time No C' to the tight latin groove of 'Heard It All Before'. Whatever the tempo and the groove, Snowy's distinctive soulful guitar runs like a golden thread throughout the album, connecting all together and making for a satisfying and very listenable offering.

***************

Snowy White And The White Flames - Reunited (2017) *PROPER* Re-Up

Snowy White And The White Flames - Reunited (2017) *PROPER* Re-Up

Track List:

01. Have I Got Blues For You [0:05:02.66]
02. Headful Of Blues [0:06:36.49]
03. I've Heard It All Before [0:04:16.34]
04. Where Will You Belong [0:04:49.71]
05. I Know Our Time Ain't Long [0:04:37.26]
06. Rest Full [0:03:41.42]
07. Long Time No C [0:03:45.59]
08. Emptyhanded [0:04:29.56]
09. 'Nuff Said [0:03:38.58]
10. In California [0:05:19.68]
11. Time To Start Living [0:11:44.24]

Exact Audio Copy V1.3 from 2. September 2016

EAC extraction logfile from 17. October 2018, 14:53

Snowy White & The White Flames / Reunited

Used drive : TSSTcorpCDDVDW SE-S084C Adapter: 1 ID: 0

Read mode : Secure
Utilize accurate stream : Yes
Defeat audio cache : Yes
Make use of C2 pointers : No

Read offset correction : 6
Overread into Lead-In and Lead-Out : No
Fill up missing offset samples with silence : Yes
Delete leading and trailing silent blocks : No
Null samples used in CRC calculations : Yes
Used interface : Native Win32 interface for Win NT & 2000

Used output format : User Defined Encoder
Selected bitrate : 896 kBit/s
Quality : High
Add ID3 tag : No
Command line compressor : C:\Program Files (x86)\Exact Audio Copy\Flac\flac.exe
Additional command line options : -V -8 -T "Date=%year%" -T "Genre=%genre%" %source%


TOC of the extracted CD

Track | Start | Length | Start sector | End sector
––––––––––––––––––––––––––––-
1 | 0:00.00 | 5:02.66 | 0 | 22715
2 | 5:02.66 | 6:36.49 | 22716 | 52464
3 | 11:39.40 | 4:16.34 | 52465 | 71698
4 | 15:55.74 | 4:49.71 | 71699 | 93444
5 | 20:45.70 | 4:37.26 | 93445 | 114245
6 | 25:23.21 | 3:41.42 | 114246 | 130862
7 | 29:04.63 | 3:45.59 | 130863 | 147796
8 | 32:50.47 | 4:29.56 | 147797 | 168027
9 | 37:20.28 | 3:38.58 | 168028 | 184435
10 | 40:59.11 | 5:19.68 | 184436 | 208428
11 | 46:19.04 | 11:44.24 | 208429 | 261252


Range status and errors

Selected range

Filename D:\EAC\Snowy White & The White Flames - Reunited.wav

Peak level 96.6 %
Extraction speed 4.3 X
Range quality 99.9 %
Test CRC FEDC8274
Copy CRC FEDC8274
Copy OK

No errors occurred


AccurateRip summary

Track 1 accurately ripped (confidence 12) [81B84C65] (AR v2)
Track 2 accurately ripped (confidence 12) [CC7437BF] (AR v2)
Track 3 accurately ripped (confidence 12) [C5EAE629] (AR v2)
Track 4 accurately ripped (confidence 12) [7FD06324] (AR v2)
Track 5 accurately ripped (confidence 12) [EF8AC1F3] (AR v2)
Track 6 accurately ripped (confidence 12) [AD95437B] (AR v2)
Track 7 accurately ripped (confidence 12) [71655FB6] (AR v2)
Track 8 accurately ripped (confidence 11) [7BC64FE3] (AR v2)
Track 9 accurately ripped (confidence 12) [F117790D] (AR v2)
Track 10 accurately ripped (confidence 11) [E4C4A819] (AR v2)
Track 11 accurately ripped (confidence 11) [85447B28] (AR v2)

All tracks accurately ripped

End of status report

–– CUETools DB Plugin V2.1.6

[CTDB TOCID: bwfnPB.ONmJ6T.VS2nBmhRAc1tU-] found
Submit result: already submitted
Track | CTDB Status
1 | (57/57) Accurately ripped
2 | (57/57) Accurately ripped
3 | (57/57) Accurately ripped
4 | (57/57) Accurately ripped
5 | (57/57) Accurately ripped
6 | (57/57) Accurately ripped
7 | (57/57) Accurately ripped
8 | (57/57) Accurately ripped
9 | (57/57) Accurately ripped
10 | (57/57) Accurately ripped
11 | (57/57) Accurately ripped


==== Log checksum 37920458C5E27E6111F5319A739231271370ED60A81A45B87D8807BE012E484B ====

[CUETools log; Date: 20.10.2018 19:09:58; Version: 2.1.6]
[CTDB TOCID: bwfnPB.ONmJ6T.VS2nBmhRAc1tU-] found.
Track | CTDB Status
1 | (57/57) Accurately ripped
2 | (57/57) Accurately ripped
3 | (57/57) Accurately ripped
4 | (57/57) Accurately ripped
5 | (57/57) Accurately ripped
6 | (57/57) Accurately ripped
7 | (57/57) Accurately ripped
8 | (57/57) Accurately ripped
9 | (57/57) Accurately ripped
10 | (57/57) Accurately ripped
11 | (57/57) Accurately ripped
[AccurateRip ID: 00163511-00bf1e35-8f0d9b0b] found.
Track [ CRC | V2 ] Status
01 [2af0bd3d|81b84c65] (00+12/14) Accurately ripped
02 [d0552fa5|cc7437bf] (00+12/16) Accurately ripped
03 [11534c12|c5eae629] (00+12/16) Accurately ripped
04 [11f215ff|7fd06324] (00+12/16) Accurately ripped
05 [6d972faa|ef8ac1f3] (00+12/16) Accurately ripped
06 [5433a43b|ad95437b] (00+12/16) Accurately ripped
07 [57f15169|71655fb6] (00+12/16) Accurately ripped
08 [04e73957|7bc64fe3] (00+11/15) Accurately ripped
09 [5a85e42c|f117790d] (00+12/16) Accurately ripped
10 [fa6e76f4|e4c4a819] (00+11/15) Accurately ripped
11 [56236505|85447b28] (00+11/15) Accurately ripped
Offsetted by -6:
01 [7b08070d] (00/14) No match (V2 was not tested)
02 [ea4279c9] (02/16) Accurately ripped
03 [729d6b7a] (02/16) Accurately ripped
04 [af233129] (02/16) Accurately ripped
05 [7c043ffa] (02/16) Accurately ripped
06 [7d609eac] (02/16) Accurately ripped
07 [4bf7ce04] (02/16) Accurately ripped
08 [fab550d3] (02/15) Accurately ripped
09 [23fc5f10] (02/16) Accurately ripped
10 [453aac16] (02/15) Accurately ripped
11 [8c8843f1] (02/15) Accurately ripped

Track Peak [ CRC32 ] [W/O NULL] [ LOG ]
– 96,6 [FEDC8274] [AECA5BE7] CRC32
01 96,6 [F97C0297] [4FF570AB]
02 96,6 [D5609108] [1F8F8415]
03 96,6 [5DA06B73] [10EA706E]
04 96,6 [E66DDE4E] [CEF97A1E]
05 96,6 [8C5B8618] [FB1BE23E]
06 96,6 [E739695A] [E2E48AAE]
07 96,6 [71F4395E] [1A0474D6]
08 96,6 [64BA437E] [1F682EA6]
09 96,6 [4D870D65] [408E0AEE]
10 96,6 [9A443EEC] [C0B32781]
11 96,6 [B2C2E72D] [43F7CF49]

Snowy White And The White Flames - Reunited (2017) *PROPER* Re-Up


All thanks go to salernitana

>>> Snowy White in my Blog <<<

DOWNLOAD: