Subcategories

Soft Cell - Non-Stop Erotic Cabaret (1981) [Deluxe Ed. Japan SHM-CD, 2010] 2CD

Posted By: Andi_Deris
Soft Cell - Non-Stop Erotic Cabaret (1981) [Deluxe Ed. Japan SHM-CD, 2010] 2CD

Soft Cell - Non-Stop Erotic Cabaret (1981) [Deluxe Ed. Japan SHM-CD, 2010] 2CD
XLD Rip | FLAC: Tracks+Cue+Log | 1.1 Gb | MP3 CBR 320 kbps | 382 Mb | Scans | 90 Mb
Mercury Records/Universal Music Japan | UICY-94428/9
Electronic, New Wave, Synthpop

Non-Stop Erotic Cabaret is the debut album by English synthpop duo Soft Cell, released in the United Kingdom on 27 November 1981 by Some Bizzare Records. The album's critical and commercial success was bolstered by the worldwide success of its single "Tainted Love", a cover version of a soul song by Gloria Jones, which topped charts worldwide and became the best-selling British single of 1981 in the United States—as a result of the single's success the album had reported advance orders of more than 200,000 copies.

Exclusive japanese SHM-CD pressing (SMH: Super High Material) for a high quality sound. Released on two seperate CDs in card sleeves with the original high quality cover artwork in CD size - incl. innersleeve - of the UK releases and card with a print of the original labels of the 'Non-Stop Erotic Cabaret' album, individually numbered. Beside folded lyric sheet of 'Non-Stop Erotic Cabaret' with japanese translation and biography. Additional booklet is the same as for the european 'Non-Stop Erotic Cabaret (Deluxe Edition)'.

Soft Cell - Non-Stop Erotic Cabaret (1981) [Deluxe Ed. Japan SHM-CD, 2010] 2CD




CD1
01:15:57

Non-Stop Erotic Cabaret - Original Album
01. Frustration (04:12)
02. Tainted Love (02:35)
03. Seedy Films (05:04)
04. Youth (03:21)
05. Sex Dwarf (05:10)
06. Entertain Me (03:35)
07. Chips On My Shoulder (04:07)
08. Bedsitter (03:35)
09. Secret Life (03:37)
10. Say Hello, Wave Goodbye (05:24)

Non-Stop Ecstatic Dancing - Original Album
11. Memorabilia (05:20)
12. Where Did Our Love Go? (04:22)
13. What? (04:31)
14. A Man Could Get Lost (03:57)
15. Chips On My Shoulder (04:29)
16. Sex Dwarf (05:11)

Bonus Tracks
17. Torch (04:09)
18. A Man Could Get Lost (03:18)

CD2
01:17:57

01. Memorabilia (Extended) (07:46)
02. Tainted Love/Where Did Our Love Go? (12'' Mix) (09:02)
03. Bedsitter (Extended) (07:52)
04. Say Hello, Wave Goodbye (Extended) (08:54)
05. Torch (Extended) (08:27)
06. What? (Extended) (06:07)
07. Persuasion (07:39)
08. Facility Girls (02:21)
09. Fun City (07:45)
10. Insecure Me (Extended) (08:14)
11. So (03:49)

Produced by Dave Ball, Daniel Miller, Mike Thorne

Personnel

• Marc Almond - vocals
• Dave Ball - backing vocals, synthesizers, electronic instruments, acoustic instruments

*****
• Cindy Ecstasy, Vicious Pink Phenomena - backing vocals
• John Gatchell - trumpet, flugelhorn
• Vicious Pink Phenomena - backing vocals
• David Tofani - saxophone, clarinet

Notes

Series: Golden 80's Papersleeve Collection - 4

℗ 1981 Mercury Records Limited (Tracks 1-01, 1-03 to 1-07, 1-09, 1-10, 2-01 to 2-04, 2-07, 2-08)
℗ 1981 Some Bizzare (1-02, 1-08)
℗ 1982 Mercury Records Limited (1-11 to 1-18, 2-05, 2-06, 2-09 to 2-11)


X Lossless Decoder version 20100323 (116.7)

XLD extraction logfile from 2010-03-23 18:16:08 +0500

Soft Cell / Non-Stop Erotic Caberet

Used drive : OPTIARC DVD RW AD-5670S (revision 2AHH)

Use cdparanoia mode : YES (CDParanoia III 10.2 engine)
Disable audio cache : OK for the drive with cache less than 2750KB
Make use of C2 pointers : NO
Read offset correction : 48
Max retry count : 100

TOC of the extracted CD
Track | Start | Length | Start sector | End sector
––––––––––––––––––––––––––––-
1 | 00:00:00 | 04:11:74 | 0 | 18898
2 | 04:11:74 | 02:34:70 | 18899 | 30518
3 | 06:46:69 | 05:03:44 | 30519 | 53287
4 | 11:50:38 | 03:21:28 | 53288 | 68390
5 | 15:11:66 | 05:09:53 | 68391 | 91618
6 | 20:21:44 | 03:34:62 | 91619 | 107730
7 | 23:56:31 | 04:06:57 | 107731 | 126237
8 | 28:03:13 | 03:35:27 | 126238 | 142389
9 | 31:38:40 | 03:36:62 | 142390 | 158651
10 | 35:15:27 | 05:24:04 | 158652 | 182955
11 | 40:39:31 | 05:20:18 | 182956 | 206973
12 | 45:59:49 | 04:22:11 | 206974 | 226634
13 | 50:21:60 | 04:31:11 | 226635 | 246970
14 | 54:52:71 | 03:57:04 | 246971 | 264749
15 | 58:50:00 | 04:28:58 | 264750 | 284907
16 | 63:18:58 | 05:10:35 | 284908 | 308192
17 | 68:29:18 | 04:08:57 | 308193 | 326849
18 | 72:38:00 | 03:18:23 | 326850 | 341722

List of alternate offset correction values
# | Absolute | Relative | Confidence
–––––––––––––––––––––
1 | 54 | 6 | 2

Track 01
Filename : /Users/gubarenko/Desktop/Soft Cell - Non-Stop Erotic Caberet/01 - Frustration.flac

Pre-gap length : 00:02:00

CRC32 hash (test run) : CC5C3B6C
CRC32 hash : CC5C3B6C
CRC32 hash (skip zero) : FFF01174
AccurateRip signature : 0D5606A3
->Accurately ripped! (confidence 15)
Statistics
Read error : 0
Skipped (treated as error) : 0
Edge jitter error (maybe fixed) : 0
Atom jitter error (maybe fixed) : 0
Drift error (maybe fixed) : 0
Dropped bytes error (maybe fixed) : 0
Duplicated bytes error (maybe fixed) : 0
Inconsistency in error sectors : 0

Track 02
Filename : /Users/gubarenko/Desktop/Soft Cell - Non-Stop Erotic Caberet/02 - Tainted Love.flac

CRC32 hash (test run) : 358A8970
CRC32 hash : 358A8970
CRC32 hash (skip zero) : 96971FB9
AccurateRip signature : 5BDAC207
->Accurately ripped! (confidence 15)
Statistics
Read error : 0
Skipped (treated as error) : 0
Edge jitter error (maybe fixed) : 0
Atom jitter error (maybe fixed) : 0
Drift error (maybe fixed) : 0
Dropped bytes error (maybe fixed) : 0
Duplicated bytes error (maybe fixed) : 0
Inconsistency in error sectors : 0

Track 03
Filename : /Users/gubarenko/Desktop/Soft Cell - Non-Stop Erotic Caberet/03 - Seedy Films.flac

Pre-gap length : 00:01:04

CRC32 hash (test run) : DD192AF4
CRC32 hash : DD192AF4
CRC32 hash (skip zero) : 45E47409
AccurateRip signature : 68DD4C2D
->Accurately ripped! (confidence 15)
Statistics
Read error : 0
Skipped (treated as error) : 0
Edge jitter error (maybe fixed) : 0
Atom jitter error (maybe fixed) : 0
Drift error (maybe fixed) : 0
Dropped bytes error (maybe fixed) : 0
Duplicated bytes error (maybe fixed) : 0
Inconsistency in error sectors : 0

Track 04
Filename : /Users/gubarenko/Desktop/Soft Cell - Non-Stop Erotic Caberet/04 - Youth.flac

CRC32 hash (test run) : 80BD4E2E
CRC32 hash : 80BD4E2E
CRC32 hash (skip zero) : 3438B039
AccurateRip signature : 1A439A72
->Accurately ripped! (confidence 14)
Statistics
Read error : 0
Skipped (treated as error) : 0
Edge jitter error (maybe fixed) : 0
Atom jitter error (maybe fixed) : 0
Drift error (maybe fixed) : 0
Dropped bytes error (maybe fixed) : 0
Duplicated bytes error (maybe fixed) : 0
Inconsistency in error sectors : 0

Track 05
Filename : /Users/gubarenko/Desktop/Soft Cell - Non-Stop Erotic Caberet/05 - Sex Dwarf.flac

CRC32 hash (test run) : 07A9C245
CRC32 hash : 07A9C245
CRC32 hash (skip zero) : 4FAC284B
AccurateRip signature : EC071A0C
->Accurately ripped! (confidence 15)
Statistics
Read error : 0
Skipped (treated as error) : 0
Edge jitter error (maybe fixed) : 0
Atom jitter error (maybe fixed) : 0
Drift error (maybe fixed) : 0
Dropped bytes error (maybe fixed) : 0
Duplicated bytes error (maybe fixed) : 0
Inconsistency in error sectors : 0

Track 06
Filename : /Users/gubarenko/Desktop/Soft Cell - Non-Stop Erotic Caberet/06 - Entertain Me.flac

CRC32 hash (test run) : E7785171
CRC32 hash : E7785171
CRC32 hash (skip zero) : D0304155
AccurateRip signature : 5118688F
->Accurately ripped! (confidence 15)
Statistics
Read error : 0
Skipped (treated as error) : 0
Edge jitter error (maybe fixed) : 0
Atom jitter error (maybe fixed) : 0
Drift error (maybe fixed) : 0
Dropped bytes error (maybe fixed) : 0
Duplicated bytes error (maybe fixed) : 0
Inconsistency in error sectors : 0

Track 07
Filename : /Users/gubarenko/Desktop/Soft Cell - Non-Stop Erotic Caberet/07 - Chips On My Shoulder.flac

CRC32 hash (test run) : 0821553D
CRC32 hash : 0821553D
CRC32 hash (skip zero) : 4E59E3BD
AccurateRip signature : AAC37AD5
->Accurately ripped! (confidence 15)
Statistics
Read error : 0
Skipped (treated as error) : 0
Edge jitter error (maybe fixed) : 0
Atom jitter error (maybe fixed) : 0
Drift error (maybe fixed) : 0
Dropped bytes error (maybe fixed) : 0
Duplicated bytes error (maybe fixed) : 0
Inconsistency in error sectors : 0

Track 08
Filename : /Users/gubarenko/Desktop/Soft Cell - Non-Stop Erotic Caberet/08 - Bedsitter.flac

CRC32 hash (test run) : 1B9D862C
CRC32 hash : 1B9D862C
CRC32 hash (skip zero) : E540E591
AccurateRip signature : A33913C5
->Accurately ripped! (confidence 15)
Statistics
Read error : 0
Skipped (treated as error) : 0
Edge jitter error (maybe fixed) : 0
Atom jitter error (maybe fixed) : 0
Drift error (maybe fixed) : 0
Dropped bytes error (maybe fixed) : 0
Duplicated bytes error (maybe fixed) : 0
Inconsistency in error sectors : 0

Track 09
Filename : /Users/gubarenko/Desktop/Soft Cell - Non-Stop Erotic Caberet/09 - Secret Life.flac

Pre-gap length : 00:00:02

CRC32 hash (test run) : 28AA0BFC
CRC32 hash : 28AA0BFC
CRC32 hash (skip zero) : C0AF4C58
AccurateRip signature : 3EB52500
->Accurately ripped! (confidence 15)
Statistics
Read error : 0
Skipped (treated as error) : 0
Edge jitter error (maybe fixed) : 0
Atom jitter error (maybe fixed) : 0
Drift error (maybe fixed) : 0
Dropped bytes error (maybe fixed) : 0
Duplicated bytes error (maybe fixed) : 0
Inconsistency in error sectors : 0

Track 10
Filename : /Users/gubarenko/Desktop/Soft Cell - Non-Stop Erotic Caberet/10 - Say Hello, Wave Goodbye.flac

CRC32 hash (test run) : 119E4E4C
CRC32 hash : 119E4E4C
CRC32 hash (skip zero) : 7DD4FDD2
AccurateRip signature : 09668157
->Accurately ripped! (confidence 14)
Statistics
Read error : 0
Skipped (treated as error) : 0
Edge jitter error (maybe fixed) : 0
Atom jitter error (maybe fixed) : 0
Drift error (maybe fixed) : 0
Dropped bytes error (maybe fixed) : 0
Duplicated bytes error (maybe fixed) : 0
Inconsistency in error sectors : 0

Track 11
Filename : /Users/gubarenko/Desktop/Soft Cell - Non-Stop Erotic Caberet/11 - Memorabilia.flac

Pre-gap length : 00:00:04

CRC32 hash (test run) : BB42C867
CRC32 hash : BB42C867
CRC32 hash (skip zero) : 8D8697DC
AccurateRip signature : F3FBEF81
->Accurately ripped! (confidence 15)
Statistics
Read error : 0
Skipped (treated as error) : 0
Edge jitter error (maybe fixed) : 0
Atom jitter error (maybe fixed) : 0
Drift error (maybe fixed) : 0
Dropped bytes error (maybe fixed) : 0
Duplicated bytes error (maybe fixed) : 0
Inconsistency in error sectors : 0

Track 12
Filename : /Users/gubarenko/Desktop/Soft Cell - Non-Stop Erotic Caberet/12 - Where Did Our Love Go?.flac

Pre-gap length : 00:00:56

CRC32 hash (test run) : 0D9AD105
CRC32 hash : 0D9AD105
CRC32 hash (skip zero) : FCAA26A1
AccurateRip signature : F18BECFD
->Accurately ripped! (confidence 15)
Statistics
Read error : 0
Skipped (treated as error) : 0
Edge jitter error (maybe fixed) : 0
Atom jitter error (maybe fixed) : 0
Drift error (maybe fixed) : 0
Dropped bytes error (maybe fixed) : 0
Duplicated bytes error (maybe fixed) : 0
Inconsistency in error sectors : 0

Track 13
Filename : /Users/gubarenko/Desktop/Soft Cell - Non-Stop Erotic Caberet/13 - What?.flac

CRC32 hash (test run) : 029770E8
CRC32 hash : 029770E8
CRC32 hash (skip zero) : 4BA8B8AC
AccurateRip signature : B846EA64
->Accurately ripped! (confidence 15)
Statistics
Read error : 0
Skipped (treated as error) : 0
Edge jitter error (maybe fixed) : 0
Atom jitter error (maybe fixed) : 0
Drift error (maybe fixed) : 0
Dropped bytes error (maybe fixed) : 0
Duplicated bytes error (maybe fixed) : 0
Inconsistency in error sectors : 0

Track 14
Filename : /Users/gubarenko/Desktop/Soft Cell - Non-Stop Erotic Caberet/14 - A Man Could Get Lost.flac

CRC32 hash (test run) : B6B6920D
CRC32 hash : B6B6920D
CRC32 hash (skip zero) : 618FCB84
AccurateRip signature : FA6F2243
->Accurately ripped! (confidence 15)
Statistics
Read error : 0
Skipped (treated as error) : 0
Edge jitter error (maybe fixed) : 0
Atom jitter error (maybe fixed) : 0
Drift error (maybe fixed) : 0
Dropped bytes error (maybe fixed) : 0
Duplicated bytes error (maybe fixed) : 0
Inconsistency in error sectors : 0

Track 15
Filename : /Users/gubarenko/Desktop/Soft Cell - Non-Stop Erotic Caberet/15 - Chips On My Shoulder.flac

CRC32 hash (test run) : 71FA7C37
CRC32 hash : 71FA7C37
CRC32 hash (skip zero) : DEB5FEE0
AccurateRip signature : 16904A56
->Accurately ripped! (confidence 15)
Statistics
Read error : 0
Skipped (treated as error) : 0
Edge jitter error (maybe fixed) : 0
Atom jitter error (maybe fixed) : 0
Drift error (maybe fixed) : 0
Dropped bytes error (maybe fixed) : 0
Duplicated bytes error (maybe fixed) : 0
Inconsistency in error sectors : 0

Track 16
Filename : /Users/gubarenko/Desktop/Soft Cell - Non-Stop Erotic Caberet/16 - Sex Dwarf.flac

CRC32 hash (test run) : 74C51F40
CRC32 hash : 74C51F40
CRC32 hash (skip zero) : 497249DF
AccurateRip signature : 2FF2B7A9
->Accurately ripped! (confidence 15)
Statistics
Read error : 0
Skipped (treated as error) : 0
Edge jitter error (maybe fixed) : 0
Atom jitter error (maybe fixed) : 0
Drift error (maybe fixed) : 0
Dropped bytes error (maybe fixed) : 0
Duplicated bytes error (maybe fixed) : 0
Inconsistency in error sectors : 0

Track 17
Filename : /Users/gubarenko/Desktop/Soft Cell - Non-Stop Erotic Caberet/17 - Torch.flac

Pre-gap length : 00:00:41

CRC32 hash (test run) : 5CB2DE50
CRC32 hash : 5CB2DE50
CRC32 hash (skip zero) : E394B2C2
AccurateRip signature : 3042E35E
->Accurately ripped! (confidence 15)
Statistics
Read error : 0
Skipped (treated as error) : 0
Edge jitter error (maybe fixed) : 0
Atom jitter error (maybe fixed) : 0
Drift error (maybe fixed) : 0
Dropped bytes error (maybe fixed) : 0
Duplicated bytes error (maybe fixed) : 0
Inconsistency in error sectors : 0

Track 18
Filename : /Users/gubarenko/Desktop/Soft Cell - Non-Stop Erotic Caberet/18 - A Man Could Get Lost.flac

Pre-gap length : 00:00:44

CRC32 hash (test run) : 9F0B25FA
CRC32 hash : 9F0B25FA
CRC32 hash (skip zero) : F582D516
AccurateRip signature : 785978C1
->Accurately ripped! (confidence 13)
Statistics
Read error : 0
Skipped (treated as error) : 0
Edge jitter error (maybe fixed) : 0
Atom jitter error (maybe fixed) : 0
Drift error (maybe fixed) : 0
Dropped bytes error (maybe fixed) : 0
Duplicated bytes error (maybe fixed) : 0
Inconsistency in error sectors : 0

No errors occurred

End of status report

X Lossless Decoder version 20100323 (116.7)

XLD extraction logfile from 2010-03-23 19:12:27 +0500

Soft Cell / Non-Stop Erotic Caberet (Deluxe Edition) - CD2

Used drive : OPTIARC DVD RW AD-5670S (revision 2AHH)

Use cdparanoia mode : YES (CDParanoia III 10.2 engine)
Disable audio cache : OK for the drive with cache less than 2750KB
Make use of C2 pointers : NO
Read offset correction : 48
Max retry count : 100

TOC of the extracted CD
Track | Start | Length | Start sector | End sector
––––––––––––––––––––––––––––-
1 | 00:00:00 | 07:45:73 | 0 | 34947
2 | 07:45:73 | 09:02:27 | 34948 | 75624
3 | 16:48:25 | 07:52:23 | 75625 | 111047
4 | 24:40:48 | 08:53:50 | 111048 | 151072
5 | 33:34:23 | 08:27:12 | 151073 | 189109
6 | 42:01:35 | 06:06:72 | 189110 | 216631
7 | 48:08:32 | 07:38:39 | 216632 | 251020
8 | 55:46:71 | 02:21:25 | 251021 | 261620
9 | 58:08:21 | 07:44:55 | 261621 | 296475
10 | 65:53:01 | 08:14:04 | 296476 | 333529
11 | 74:07:05 | 03:49:20 | 333530 | 350724


Track 01
Filename : /Users/gubarenko/Desktop/Compilations - Non-Stop Erotic Caberet (Deluxe Edition) - CD2/01 - Memorabilia (Extended).flac

Pre-gap length : 00:02:00

CRC32 hash (test run) : 29DB529A
CRC32 hash : 29DB529A
CRC32 hash (skip zero) : 6F9E846C
AccurateRip signature : 1BB4360F
->Accurately ripped! (confidence 15)
Statistics
Read error : 0
Skipped (treated as error) : 0
Edge jitter error (maybe fixed) : 0
Atom jitter error (maybe fixed) : 0
Drift error (maybe fixed) : 0
Dropped bytes error (maybe fixed) : 0
Duplicated bytes error (maybe fixed) : 0
Inconsistency in error sectors : 0

Track 02
Filename : /Users/gubarenko/Desktop/Compilations - Non-Stop Erotic Caberet (Deluxe Edition) - CD2/02 - Where Did Our Love Go (12" Mix).flac

CRC32 hash (test run) : 5FE7046F
CRC32 hash : 5FE7046F
CRC32 hash (skip zero) : 53D10DA4
AccurateRip signature : 92795A6C
->Accurately ripped! (confidence 15)
Statistics
Read error : 0
Skipped (treated as error) : 0
Edge jitter error (maybe fixed) : 0
Atom jitter error (maybe fixed) : 0
Drift error (maybe fixed) : 0
Dropped bytes error (maybe fixed) : 0
Duplicated bytes error (maybe fixed) : 0
Inconsistency in error sectors : 0

Track 03
Filename : /Users/gubarenko/Desktop/Compilations - Non-Stop Erotic Caberet (Deluxe Edition) - CD2/03 - Bedsitter (Extended).flac

CRC32 hash (test run) : F78049D5
CRC32 hash : F78049D5
CRC32 hash (skip zero) : 5F01A06F
AccurateRip signature : DDC17D52
->Accurately ripped! (confidence 15)
Statistics
Read error : 0
Skipped (treated as error) : 0
Edge jitter error (maybe fixed) : 0
Atom jitter error (maybe fixed) : 0
Drift error (maybe fixed) : 0
Dropped bytes error (maybe fixed) : 0
Duplicated bytes error (maybe fixed) : 0
Inconsistency in error sectors : 0

Track 04
Filename : /Users/gubarenko/Desktop/Compilations - Non-Stop Erotic Caberet (Deluxe Edition) - CD2/04 - Say Hello, Wave Goodbye (Extended).flac

CRC32 hash (test run) : D181B2DB
CRC32 hash : D181B2DB
CRC32 hash (skip zero) : 86939CC2
AccurateRip signature : 47C90025
->Accurately ripped! (confidence 15)
Statistics
Read error : 0
Skipped (treated as error) : 0
Edge jitter error (maybe fixed) : 0
Atom jitter error (maybe fixed) : 0
Drift error (maybe fixed) : 0
Dropped bytes error (maybe fixed) : 0
Duplicated bytes error (maybe fixed) : 0
Inconsistency in error sectors : 0

Track 05
Filename : /Users/gubarenko/Desktop/Compilations - Non-Stop Erotic Caberet (Deluxe Edition) - CD2/05 - Torch (Extended).flac

CRC32 hash (test run) : BE542D86
CRC32 hash : BE542D86
CRC32 hash (skip zero) : 1128A3B8
AccurateRip signature : F96C8227
->Accurately ripped! (confidence 15)
Statistics
Read error : 0
Skipped (treated as error) : 0
Edge jitter error (maybe fixed) : 0
Atom jitter error (maybe fixed) : 0
Drift error (maybe fixed) : 0
Dropped bytes error (maybe fixed) : 0
Duplicated bytes error (maybe fixed) : 0
Inconsistency in error sectors : 0

Track 06
Filename : /Users/gubarenko/Desktop/Compilations - Non-Stop Erotic Caberet (Deluxe Edition) - CD2/06 - What? (Extended).flac

CRC32 hash (test run) : 367396F3
CRC32 hash : 367396F3
CRC32 hash (skip zero) : A8E3541A
AccurateRip signature : 31A1BD85
->Accurately ripped! (confidence 15)
Statistics
Read error : 0
Skipped (treated as error) : 0
Edge jitter error (maybe fixed) : 0
Atom jitter error (maybe fixed) : 0
Drift error (maybe fixed) : 0
Dropped bytes error (maybe fixed) : 0
Duplicated bytes error (maybe fixed) : 0
Inconsistency in error sectors : 0

Track 07
Filename : /Users/gubarenko/Desktop/Compilations - Non-Stop Erotic Caberet (Deluxe Edition) - CD2/07 - Persuasion.flac

CRC32 hash (test run) : 8A6E6966
CRC32 hash : 8A6E6966
CRC32 hash (skip zero) : E73204F8
AccurateRip signature : 30084942
->Accurately ripped! (confidence 15)
Statistics
Read error : 0
Skipped (treated as error) : 0
Edge jitter error (maybe fixed) : 0
Atom jitter error (maybe fixed) : 0
Drift error (maybe fixed) : 0
Dropped bytes error (maybe fixed) : 0
Duplicated bytes error (maybe fixed) : 0
Inconsistency in error sectors : 0

Track 08
Filename : /Users/gubarenko/Desktop/Compilations - Non-Stop Erotic Caberet (Deluxe Edition) - CD2/08 - Facility Girls.flac

CRC32 hash (test run) : 753DDE08
CRC32 hash : 753DDE08
CRC32 hash (skip zero) : D717A4E1
AccurateRip signature : 6F8B4616
->Accurately ripped! (confidence 15)
Statistics
Read error : 0
Skipped (treated as error) : 0
Edge jitter error (maybe fixed) : 0
Atom jitter error (maybe fixed) : 0
Drift error (maybe fixed) : 0
Dropped bytes error (maybe fixed) : 0
Duplicated bytes error (maybe fixed) : 0
Inconsistency in error sectors : 0

Track 09
Filename : /Users/gubarenko/Desktop/Compilations - Non-Stop Erotic Caberet (Deluxe Edition) - CD2/09 - Fun City.flac

CRC32 hash (test run) : CF8BE536
CRC32 hash : CF8BE536
CRC32 hash (skip zero) : 08B706F4
AccurateRip signature : 0704A185
->Accurately ripped! (confidence 15)
Statistics
Read error : 0
Skipped (treated as error) : 0
Edge jitter error (maybe fixed) : 0
Atom jitter error (maybe fixed) : 0
Drift error (maybe fixed) : 0
Dropped bytes error (maybe fixed) : 0
Duplicated bytes error (maybe fixed) : 0
Inconsistency in error sectors : 0

Track 10
Filename : /Users/gubarenko/Desktop/Compilations - Non-Stop Erotic Caberet (Deluxe Edition) - CD2/10 - Insecure Me (Extended).flac

CRC32 hash (test run) : 9B37C11E
CRC32 hash : 9B37C11E
CRC32 hash (skip zero) : C1A56CD1
AccurateRip signature : 33FFFC19
->Accurately ripped! (confidence 15)
Statistics
Read error : 0
Skipped (treated as error) : 0
Edge jitter error (maybe fixed) : 0
Atom jitter error (maybe fixed) : 0
Drift error (maybe fixed) : 0
Dropped bytes error (maybe fixed) : 0
Duplicated bytes error (maybe fixed) : 0
Inconsistency in error sectors : 0

Track 11
Filename : /Users/gubarenko/Desktop/Compilations - Non-Stop Erotic Caberet (Deluxe Edition) - CD2/11 - So.flac

CRC32 hash (test run) : D6EFC1D0
CRC32 hash : D6EFC1D0
CRC32 hash (skip zero) : 3CE6D867
AccurateRip signature : ADFDC806
->Accurately ripped! (confidence 14)
Statistics
Read error : 0
Skipped (treated as error) : 0
Edge jitter error (maybe fixed) : 0
Atom jitter error (maybe fixed) : 0
Drift error (maybe fixed) : 0
Dropped bytes error (maybe fixed) : 0
Duplicated bytes error (maybe fixed) : 0
Inconsistency in error sectors : 0

No errors occurred

End of status report


Many thanks to the original uploader: mgubarenko