Subcategories

Soft Heap - Soft Heap (1978) [Reissue 2009]

Posted By: gribovar
Soft Heap - Soft Heap (1978) [Reissue 2009]

Soft Heap - Soft Heap (1978) [Reissue 2009]
EAC Rip | WavPack (image+.cue+log) - 253 MB | MP3 CBR 320 kbps (LAME 3.93) - 115 MB | Covers (14 MB) included
Genre: Progressive Rock/Canterbury Scene | RAR 3% Rec. | Label: Esoteric Recordings (ECLEC2131)

Soft Heap was a Canterbury scene supergroup founded in January 1978. Featuring members of Soft Machine, Gilgamesh, and National Health, Soft Heap was invariably an adventurous band that had girded themselves for live work, with this eponymous set their sole studio release. The name references Soft Machine while "Heap" comes from the first letters of the band's founders: Hugh Hopper (bass), Elton Dean (saxophone), Alan Gowen (keyboards) and Pip Pyle (drums).

Tracklist:
01. Circle Line
02. A.W.O.L.
03. Petit 3's
04. Terra Nova
05. Fara
06. Short Hand

Total time: 42:47

Exact Audio Copy V1.0 beta 3 from 29. August 2011

EAC extraction logfile from 5. October 2013, 11:26

Soft Heap / Soft Heap

Used drive : HL-DT-STBDDVDRW GBC-H20N Adapter: 1 ID: 0

Read mode : Secure
Utilize accurate stream : Yes
Defeat audio cache : Yes
Make use of C2 pointers : No

Read offset correction : 667
Overread into Lead-In and Lead-Out : No
Fill up missing offset samples with silence : Yes
Delete leading and trailing silent blocks : No
Null samples used in CRC calculations : Yes
Used interface : Native Win32 interface for Win NT & 2000

Used output format : User Defined Encoder
Selected bitrate : 1024 kBit/s
Quality : High
Add ID3 tag : No
Command line compressor : C:\Program Files\Exact Audio Copy\wavpack.exe
Additional command line options : -hm %source% %dest%


TOC of the extracted CD

Track | Start | Length | Start sector | End sector
––––––––––––––––––––––––––––-
1 | 0:00.00 | 6:55.04 | 0 | 31128
2 | 6:55.04 | 9:34.45 | 31129 | 74223
3 | 16:29.49 | 6:18.53 | 74224 | 102626
4 | 22:48.27 | 10:03.33 | 102627 | 147884
5 | 32:51.60 | 6:42.08 | 147885 | 178042
6 | 39:33.68 | 3:12.68 | 178043 | 192510


Range status and errors

Selected range

Filename C:\Users\ProgDog\Music\ZALIVKI\Canterbury Scene\Soft Heap - Head\3 - 1979 - Soft Heap\Soft Heap - Soft Heap.wav

Peak level 99.4 %
Extraction speed 5.7 X
Range quality 100.0 %
Test CRC A9428159
Copy CRC A9428159
Copy OK

No errors occurred


AccurateRip summary

Track 1 accurately ripped (confidence 2) [D110F33D] (AR v2)
Track 2 accurately ripped (confidence 2) [4D3565EC] (AR v2)
Track 3 accurately ripped (confidence 2) [01721E9D] (AR v2)
Track 4 accurately ripped (confidence 2) [105A3BB6] (AR v2)
Track 5 accurately ripped (confidence 2) [94C94E86] (AR v2)
Track 6 accurately ripped (confidence 2) [194A7B5E] (AR v2)

All tracks accurately ripped

End of status report

–– CUETools DB Plugin V2.1.3

[CTDB TOCID: SjUIZkpVOY4DxrwEmzMmpA.tYd8-] found, Submit result: SjUIZkpVOY4DxrwEmzMmpA.tYd8- has been confirmed
[9ea8fb90] (4/4) Accurately ripped


==== Log checksum 37549D32D4E9B9AF46C81367422C540D1216911798FF83E6C64A5D79262E604C ====

[CUETools log; Date: 24.05.2019 2:02:20; Version: 2.1.4]
[CTDB TOCID: SjUIZkpVOY4DxrwEmzMmpA.tYd8-] found.
Track | CTDB Status
1 | (15/15) Accurately ripped
2 | (15/15) Accurately ripped
3 | (15/15) Accurately ripped
4 | (15/15) Accurately ripped
5 | (15/15) Accurately ripped
6 | (15/15) Accurately ripped
[AccurateRip ID: 000b1593-003ac1cb-510a0606] found.
Track [ CRC | V2 ] Status
01 [34896b6c|d110f33d] (05+05/10) Accurately ripped
02 [3567a108|4d3565ec] (05+05/10) Accurately ripped
03 [b12ae693|01721e9d] (05+05/10) Accurately ripped
04 [0ee06cf5|105a3bb6] (05+05/10) Accurately ripped
05 [e43232b2|94c94e86] (05+05/10) Accurately ripped
06 [a6b428db|194a7b5e] (05+05/10) Accurately ripped

Track Peak [ CRC32 ] [W/O NULL] [ LOG ]
– 99,4 [A9428159] [E00ACD09] CRC32
01 99,4 [4C8A6782] [04845FA0]
02 99,4 [72EC2D23] [E6798990]
03 99,4 [E0AE8F6D] [6F3C1BED]
04 99,4 [E0752E52] [084F6D84]
05 99,4 [CB137752] [B081D5F1]
06 99,4 [21F6BBAE] [B911CC1C]

Thanks to arizonadream