Subcategories

Soft Machine - Alive & Well: Recorded in Paris (1978) [2CD Reissue 2010]

Posted By: gribovar
Soft Machine - Alive & Well: Recorded in Paris (1978) [2CD Reissue 2010]

Soft Machine - Alive & Well: Recorded in Paris (1978) [2CD Reissue 2010]
EAC Rip | WavPack (image+.cue+log) - 582 MB | MP3 CBR 320 kbps (LAME 3.93) - 223 MB | Covers - 129 MB
Genre: Progressive Rock/Canterbury Scene | RAR 3% Rec. | Label: Esoteric Recordings (ECLEC 22234)

Esoteric Recordings are pleased to announce the long overdue release of an expanded 2CD remastered edition of the classic 1978 live album Alive & Well Recorded In Paris by the celebrated Jazz and Rock group Soft Machine. The album was the band ‘s third for EMI's Harvest label and featured a line-up of KARL Jenkins (Piano, Electric Keyboards, Synthesiser), John Marshall (Drums), John Etheridge (Acoustic and Electric Guitars) and new members Steve Cook (Bass Guitar) and Ric Sanders (Violin). The final live recordings to be released by the band during their lifetime, Alive & Well was the product of several nights of excellent concerts at Le Palace Theatre in Monmartre, Paris in July 1978. The album was initially released as a single album, although the discovery of multi-track masters of a concert in the archives has resulted in this expanded edition with a CD of additional material recorded in July 1978. Unavailable officially on CD for nearly fifteen years, this Esoteric Recordings reissue has been re-mastered from the original master tapes and fully restores the original artwork.

CD 1 Tracklist:
01. White Kite
02. Eos
03. Odds Bullets And Blades Pt 1
04. Odds Bullets And Blades Pt 2
05. Song Of The Sunbird
06. Puffin'
07. Huffin'
08. Number Three
09. The Nodder
10. Surrounding Silence
11. Soft Space

Total time: 38:36

CD 1 Tracklist:
01. K’S Riff
02. The Nodder
03. Two Down
04. The Spraunce
05. Song Of Aeolus
06. Sideburn
07. The Tale Of Taliesin
08. Organic Matter / One Over The Eight
09. Soft Space Part One (Edited Version)
10. Soft Space Part Two (Disco Version)

Total time: 56:11

Exact Audio Copy V1.0 beta 3 from 29. August 2011

EAC extraction logfile from 29. July 2012, 16:54

Soft Machine / Alive & Well Recorded In Paris

Used drive : HL-DT-STBDDVDRW GBC-H20N Adapter: 1 ID: 0

Read mode : Secure
Utilize accurate stream : Yes
Defeat audio cache : Yes
Make use of C2 pointers : No

Read offset correction : 667
Overread into Lead-In and Lead-Out : No
Fill up missing offset samples with silence : Yes
Delete leading and trailing silent blocks : No
Null samples used in CRC calculations : Yes
Used interface : Native Win32 interface for Win NT & 2000

Used output format : User Defined Encoder
Selected bitrate : 1024 kBit/s
Quality : High
Add ID3 tag : No
Command line compressor : C:\Program Files\Exact Audio Copy\wavpack.exe
Additional command line options : -hm %source% %dest%


TOC of the extracted CD

Track | Start | Length | Start sector | End sector
––––––––––––––––––––––––––––-
1 | 0:00.00 | 3:00.20 | 0 | 13519
2 | 3:00.20 | 1:19.70 | 13520 | 19514
3 | 4:20.15 | 2:18.61 | 19515 | 29925
4 | 6:39.01 | 2:32.68 | 29926 | 41393
5 | 9:11.69 | 1:24.49 | 41394 | 47742
6 | 10:36.43 | 1:17.22 | 47743 | 53539
7 | 11:53.65 | 4:41.46 | 53540 | 74660
8 | 16:35.36 | 2:26.23 | 74661 | 85633
9 | 19:01.59 | 7:12.32 | 85634 | 118065
10 | 26:14.16 | 4:04.39 | 118066 | 136404
11 | 30:18.55 | 8:17.47 | 136405 | 173726


Range status and errors

Selected range

Filename I:\Music\Canterbury scene\Soft Machine\Soft.Machine-Discography.1968-2010.FLAC.CUE.Lossless\1 - Studio\11 - Alive & Well Recorded in Paris\Disc One\Soft Machine - Alive & Well Recorded In Paris.wav

Peak level 98.9 %
Extraction speed 5.5 X
Range quality 99.9 %
Test CRC B6885217
Copy CRC B6885217
Copy OK

No errors occurred


AccurateRip summary

Track 1 accurately ripped (confidence 2) [77BC297D] (AR v1)
Track 2 accurately ripped (confidence 2) [1F1DCC1C] (AR v1)
Track 3 accurately ripped (confidence 2) [04CCB474] (AR v1)
Track 4 accurately ripped (confidence 2) [304E92D1] (AR v1)
Track 5 accurately ripped (confidence 2) [F1B3C645] (AR v1)
Track 6 accurately ripped (confidence 2) [B733A1CC] (AR v1)
Track 7 accurately ripped (confidence 2) [3B1E20B6] (AR v1)
Track 8 accurately ripped (confidence 2) [A70E45CA] (AR v1)
Track 9 accurately ripped (confidence 2) [CCEA7D59] (AR v1)
Track 10 accurately ripped (confidence 2) [F1509316] (AR v1)
Track 11 accurately ripped (confidence 2) [BE7B74CE] (AR v1)

All tracks accurately ripped

End of status report

–– CUETools DB Plugin V2.1.3

[CTDB TOCID: B0GmpH1Ar_URiReVlgjxcfIix3Y-] found, Submit result: B0GmpH1Ar_URiReVlgjxcfIix3Y- has been confirmed
[3ebff40e] (4/4) Accurately ripped


==== Log checksum 2B06B122F1EB7DC391CA73D33574451FEF286C1AE5D65C5CC3EA17C37C9967DD ====

[CUETools log; Date: 20.07.2019 1:24:02; Version: 2.1.4]
[CTDB TOCID: B0GmpH1Ar_URiReVlgjxcfIix3Y-] found.
Track | CTDB Status
1 | (36/36) Accurately ripped
2 | (36/36) Accurately ripped
3 | (36/36) Accurately ripped
4 | (36/36) Accurately ripped
5 | (36/36) Accurately ripped
6 | (36/36) Accurately ripped
7 | (36/36) Accurately ripped
8 | (36/36) Accurately ripped
9 | (36/36) Accurately ripped
10 | (36/36) Accurately ripped
11 | (34/36) Accurately ripped
[AccurateRip ID: 000c1e13-006df9a3-87090c0b] found.
Track [ CRC | V2 ] Status
01 [77bc297d|a85218b8] (06+15/21) Accurately ripped
02 [1f1dcc1c|3a879a58] (06+15/21) Accurately ripped
03 [04ccb474|53fd1015] (06+15/21) Accurately ripped
04 [304e92d1|efd48967] (06+15/21) Accurately ripped
05 [f1b3c645|67bb8223] (06+15/21) Accurately ripped
06 [b733a1cc|d7073ead] (06+15/21) Accurately ripped
07 [3b1e20b6|1b589688] (06+15/21) Accurately ripped
08 [a70e45ca|f12133ce] (06+15/21) Accurately ripped
09 [ccea7d59|c80db3f1] (06+15/21) Accurately ripped
10 [f1509316|d0accde0] (06+15/21) Accurately ripped
11 [be7b74ce|d9c79ed4] (06+15/21) Accurately ripped

Track Peak [ CRC32 ] [W/O NULL] [ LOG ]
– 98,9 [B6885217] [6A3AFD0A] CRC32
01 97,8 [5F0090D1] [C824E77A]
02 98,8 [2F0724C1] [B89E5703]
03 98,8 [C4A89AC9] [E4D23FE8]
04 98,9 [F0D3DF67] [3A1F9FE8]
05 53,1 [D30B3D3A] [5FE0E61D]
06 98,8 [80E85A70] [7C70D9AD]
07 98,9 [CAC3E8B6] [00025441]
08 89,0 [1078B178] [3FC82D18]
09 98,8 [C34C0E65] [3A3F1054]
10 45,1 [DD9F05E0] [04ED623A]
11 98,8 [CA3A815F] [41186AF4]

Exact Audio Copy V1.0 beta 3 from 29. August 2011

EAC extraction logfile from 29. July 2012, 17:17

Soft Machine / Alive & Well Recorded In Paris

Used drive : HL-DT-STBDDVDRW GBC-H20N Adapter: 1 ID: 0

Read mode : Secure
Utilize accurate stream : Yes
Defeat audio cache : Yes
Make use of C2 pointers : No

Read offset correction : 667
Overread into Lead-In and Lead-Out : No
Fill up missing offset samples with silence : Yes
Delete leading and trailing silent blocks : No
Null samples used in CRC calculations : Yes
Used interface : Native Win32 interface for Win NT & 2000

Used output format : User Defined Encoder
Selected bitrate : 1024 kBit/s
Quality : High
Add ID3 tag : No
Command line compressor : C:\Program Files\Exact Audio Copy\wavpack.exe
Additional command line options : -hm %source% %dest%


TOC of the extracted CD

Track | Start | Length | Start sector | End sector
––––––––––––––––––––––––––––-
1 | 0:00.00 | 4:41.07 | 0 | 21081
2 | 4:41.07 | 7:12.67 | 21082 | 53548
3 | 11:53.74 | 2:26.64 | 53549 | 64562
4 | 14:20.63 | 6:26.66 | 64563 | 93578
5 | 20:47.54 | 3:40.39 | 93579 | 110117
6 | 24:28.18 | 7:43.35 | 110118 | 144877
7 | 32:11.53 | 8:08.27 | 144878 | 181504
8 | 40:20.05 | 5:54.67 | 181505 | 208121
9 | 46:14.72 | 4:15.01 | 208122 | 227247
10 | 50:29.73 | 5:41.13 | 227248 | 252835


Range status and errors

Selected range

Filename I:\Music\Canterbury scene\Soft Machine\Soft.Machine-Discography.1968-2010.FLAC.CUE.Lossless\1 - Studio\11 - Alive & Well Recorded in Paris\Disc Two\Soft Machine - Alive & Well Recorded In Paris.wav

Peak level 98.8 %
Extraction speed 6.1 X
Range quality 99.9 %
Test CRC CB0E89AF
Copy CRC CB0E89AF
Copy OK

No errors occurred


AccurateRip summary

Track 1 not present in database
Track 2 not present in database
Track 3 not present in database
Track 4 not present in database
Track 5 not present in database
Track 6 not present in database
Track 7 not present in database
Track 8 not present in database
Track 9 not present in database
Track 10 not present in database

None of the tracks are present in the AccurateRip database

End of status report

–– CUETools DB Plugin V2.1.3

[CTDB TOCID: T0NhqNH62Q4Q2eigmeD4L1T2Zzc-] found, Submit result: T0NhqNH62Q4Q2eigmeD4L1T2Zzc- has been confirmed
[f039d025] (4/4) Accurately ripped


==== Log checksum 8C511443F128C27A7B0744FFB695D5607D133C3EF02AD0A66FBE05E911458A40 ====

[CUETools log; Date: 20.07.2019 1:25:18; Version: 2.1.4]
[CTDB TOCID: T0NhqNH62Q4Q2eigmeD4L1T2Zzc-] found.
Track | CTDB Status
1 | (35/35) Accurately ripped
2 | (35/35) Accurately ripped
3 | (35/35) Accurately ripped
4 | (35/35) Accurately ripped
5 | (35/35) Accurately ripped
6 | (35/35) Accurately ripped
7 | (35/35) Accurately ripped
8 | (35/35) Accurately ripped
9 | (35/35) Accurately ripped
10 | (34/35) Accurately ripped
[AccurateRip ID: 0014b6a8-00a794e3-7f0d2b0a] found.
Track [ CRC | V2 ] Status
01 [3319b16e|87266eb4] (05+15/20) Accurately ripped
02 [4d35d8be|40663d6b] (05+14/19) Accurately ripped
03 [b3aeef14|5e9549de] (05+15/20) Accurately ripped
04 [8bc7f18e|41a08225] (05+15/20) Accurately ripped
05 [fa196f79|fd90913c] (05+15/20) Accurately ripped
06 [af9622c5|3937e221] (05+15/20) Accurately ripped
07 [369a060b|6a352f84] (05+15/20) Accurately ripped
08 [899f9621|86b6e204] (05+15/20) Accurately ripped
09 [b9ab7c3e|22c14b3a] (04+15/19) Accurately ripped
10 [7b585451|61c54025] (04+15/19) Accurately ripped

Track Peak [ CRC32 ] [W/O NULL] [ LOG ]
– 98,8 [CB0E89AF] [A5CFFC78] CRC32
01 98,8 [B74B1413] [589DE349]
02 98,8 [25D29A44] [230D9A6B]
03 98,8 [06E4AE9F] [992B438B]
04 98,8 [191CDCBA] [022A1B96]
05 89,9 [B8FA61B3] [6825CA71]
06 98,8 [DA52D768] [02F5FD29]
07 98,8 [08ECE54C] [9BC3F8E3]
08 98,8 [BD4E5AC4] [6494CAD5]
09 98,8 [AD17CE32] [DFBBFD1F]
10 98,8 [5CE0534E] [7BD69ACA]

Thanks to arizonadream

See also: