Subcategories

Soft Machine - Bundles (1975) [Reissue 2010]

Posted By: gribovar
Soft Machine - Bundles (1975) [Reissue 2010]

Soft Machine - Bundles (1975) [Reissue 2010]
EAC Rip | WavPack (image+.cue+log) - 240 MB | MP3 CBR 320 kbps (LAME 3.93) - 99 MB | Covers - 123 MB
Genre: Progressive Rock/Canterbury Scene | RAR 3% Rec. | Label: Esoteric Recordings (ECLEC 2196)

Esoteric Recordings are pleased to announce the long overdue release of the re-mastered edition of the classic 1975 album Bundles by the celebrated Jazz and Rock group Soft Machine. The album was the band s first for EMI's Harvest label and featured a line-up of Mike Ratledge (keyboards), Karl Jenkins (Oboe, Piano, Soprano Sax), John Marshall (Drums), Roy Babbington (Bass) and new member Allan Holdsworth (Guitar). An accessible collection, Bundles featured Holdsworth’s considerable guitar playing talents and opened a new chapter for the band, and attracted much praise upon release. Unavailable on CD for nearly 15 years, this Esoteric Recordings reissue has been re-mastered from the original tapes and fully restores the original artwork.

Tracklist:
01. Hazard Profile Part One
02. Hazard Profile Part Two
03. Hazard Profile Part Three
04. Hazard Profile Part Four
05. Hazard Profile Part Five
06. Gone Sailing
07. Bundles
08. Land Of The Bag Snake
09. The Man Who Waved At Trains
10. Peff
11. Four Gongs Two Drums
12. The Floating World

Total time: 41:59

Exact Audio Copy V1.0 beta 3 from 29. August 2011

EAC extraction logfile from 29. July 2012, 15:17

Soft Machine / Bundles

Used drive : HL-DT-STBDDVDRW GBC-H20N Adapter: 1 ID: 0

Read mode : Secure
Utilize accurate stream : Yes
Defeat audio cache : Yes
Make use of C2 pointers : No

Read offset correction : 667
Overread into Lead-In and Lead-Out : No
Fill up missing offset samples with silence : Yes
Delete leading and trailing silent blocks : No
Null samples used in CRC calculations : Yes
Used interface : Native Win32 interface for Win NT & 2000

Used output format : User Defined Encoder
Selected bitrate : 1024 kBit/s
Quality : High
Add ID3 tag : No
Command line compressor : C:\Program Files\Exact Audio Copy\wavpack.exe
Additional command line options : -hm %source% %dest%


TOC of the extracted CD

Track | Start | Length | Start sector | End sector
––––––––––––––––––––––––––––-
1 | 0:00.00 | 9:19.39 | 0 | 41963
2 | 9:19.39 | 2:15.14 | 41964 | 52102
3 | 11:34.53 | 0:33.01 | 52103 | 54578
4 | 12:07.54 | 1:25.53 | 54579 | 61006
5 | 13:33.32 | 5:29.40 | 61007 | 85721
6 | 19:02.72 | 0:59.14 | 85722 | 90160
7 | 20:02.11 | 3:14.29 | 90161 | 104739
8 | 23:16.40 | 3:35.26 | 104740 | 120890
9 | 26:51.66 | 1:50.74 | 120891 | 129214
10 | 28:42.65 | 3:37.03 | 129215 | 145492
11 | 32:19.68 | 2:31.33 | 145493 | 156850
12 | 34:51.26 | 7:07.46 | 156851 | 188921


Range status and errors

Selected range

Filename I:\Music\Canterbury scene\Soft Machine\Soft.Machine-Discography.1968-2010.FLAC.CUE.Lossless\1 - Studio\08 - Bundles\Soft Machine - Bundles.wav

Peak level 98.8 %
Extraction speed 5.7 X
Range quality 100.0 %
Test CRC 01783B80
Copy CRC 01783B80
Copy OK

No errors occurred


AccurateRip summary

Track 1 accurately ripped (confidence 4) [F07244D4] (AR v2)
Track 2 accurately ripped (confidence 4) [7920B875] (AR v2)
Track 3 accurately ripped (confidence 4) [2A6B4C85] (AR v2)
Track 4 accurately ripped (confidence 4) [AE9F5043] (AR v2)
Track 5 accurately ripped (confidence 4) [8B940CAF] (AR v2)
Track 6 accurately ripped (confidence 4) [EBB5A2B2] (AR v2)
Track 7 accurately ripped (confidence 4) [646EAAB3] (AR v2)
Track 8 accurately ripped (confidence 4) [208D9BB5] (AR v2)
Track 9 accurately ripped (confidence 4) [EEEEA431] (AR v2)
Track 10 accurately ripped (confidence 4) [180B465B] (AR v2)
Track 11 accurately ripped (confidence 4) [B80CF2B4] (AR v2)
Track 12 accurately ripped (confidence 4) [4AD14A30] (AR v2)

All tracks accurately ripped

End of status report

–– CUETools DB Plugin V2.1.3

[CTDB TOCID: U90m2vaub5bE.JP3q7REyKvWXJY-] found, Submit result: U90m2vaub5bE.JP3q7REyKvWXJY- has been confirmed
[79956227] (5/5) Accurately ripped


==== Log checksum 188A2C37CF42D650D528088FBFE0DEAB97A18B5B4572AD91894B0CC3C03BC1DD ====

[CUETools log; Date: 18.07.2019 2:37:38; Version: 2.1.4]
[CTDB TOCID: U90m2vaub5bE.JP3q7REyKvWXJY-] found.
Track | CTDB Status
1 | (102/103) Accurately ripped
2 | (102/103) Accurately ripped
3 | (102/103) Accurately ripped
4 | (102/103) Accurately ripped
5 | (102/103) Accurately ripped
6 | (102/103) Accurately ripped
7 | (102/103) Accurately ripped
8 | (102/103) Accurately ripped
9 | (102/103) Accurately ripped
10 | (102/103) Accurately ripped
11 | (102/103) Accurately ripped
12 | ( 96/103) Accurately ripped
[AccurateRip ID: 0012cb20-00a8d99e-9f09d60c] found.
Track [ CRC | V2 ] Status
01 [5619ccc2|f07244d4] (16+32/64) Accurately ripped
02 [54577e71|7920b875] (16+32/64) Accurately ripped
03 [0f257c41|2a6b4c85] (16+32/64) Accurately ripped
04 [25b25801|ae9f5043] (16+32/64) Accurately ripped
05 [26834a10|8b940caf] (16+32/64) Accurately ripped
06 [e9f201c6|ebb5a2b2] (16+32/64) Accurately ripped
07 [8329c60c|646eaab3] (16+32/64) Accurately ripped
08 [26ce7fb7|208d9bb5] (16+32/64) Accurately ripped
09 [60fb6ecf|eeeea431] (16+32/64) Accurately ripped
10 [bf60bd16|180b465b] (16+32/64) Accurately ripped
11 [3852a7df|b80cf2b4] (16+32/64) Accurately ripped
12 [549cf2cb|4ad14a30] (16+33/65) Accurately ripped
Offsetted by -114:
01 [8a16d99f] (00/64) No match (V2 was not tested)
02 [10426a1b] (00/64) No match (V2 was not tested)
03 [6116b338] (00/64) No match (V2 was not tested)
04 [be22046f] (00/64) No match (V2 was not tested)
05 [3bd0fd77] (00/64) No match (V2 was not tested)
06 [cedacef7] (00/64) No match (V2 was not tested)
07 [46df3450] (00/64) No match (V2 was not tested)
08 [f3c6fe24] (00/64) No match
09 [21d7e5eb] (00/64) No match (V2 was not tested)
10 [5f92e014] (00/64) No match (V2 was not tested)
11 [d745c788] (00/64) No match (V2 was not tested)
12 [e770d67d] (00/65) No match (V2 was not tested)
Offsetted by 6:
01 [da8994de] (00/64) No match (V2 was not tested)
02 [d7b8a057] (00/64) No match (V2 was not tested)
03 [143ca9fc] (00/64) No match (V2 was not tested)
04 [fd1b4fed] (00/64) No match (V2 was not tested)
05 [e5fd6cc1] (00/64) No match (V2 was not tested)
06 [07301ad4] (00/64) No match (V2 was not tested)
07 [5c9bd8fc] (00/64) No match (V2 was not tested)
08 [41a66697] (00/64) No match (V2 was not tested)
09 [0790f79f] (00/64) No match (V2 was not tested)
10 [769d39a5] (00/64) No match (V2 was not tested)
11 [4323668e] (00/64) No match (V2 was not tested)
12 [a9dd9ea7] (00/65) No match (V2 was not tested)

Track Peak [ CRC32 ] [W/O NULL] [ LOG ]
– 98,8 [01783B80] [24E04665] CRC32
01 98,8 [31FCCDB8] [2D14A90F]
02 32,8 [20AC348F] [F41F7572]
03 79,5 [6AF2A964] [2E0599F9]
04 98,8 [1DB72C28] [618DE65B]
05 98,8 [FC5442A8] [2D656A36]
06 66,3 [CECDAEBF] [DEF2FB9A]
07 98,8 [E8FBE347] [5E75B58C]
08 98,8 [394E6F9B] [FAD6FA74]
09 98,8 [DB91E300] [5A8BCB7E]
10 98,8 [3BC07B3C] [45115ECA]
11 98,8 [ED223C2E] [6D272B4E]
12 39,1 [9C6B9A18] [D4ED3AFF]

Thanks to arizonadream

See also: